Представление или Шарлотта и ее отбивная / Présentation ou Charlotte et son steak (Эрик Ромер / Eric Rohmer) [1960, Франция, короткометражка, мелодрама, BDRip] Sub Rus + Original Fre


Статистика раздачи [Обновить пиров]
Размер:  88 MB   |    Зарегистрирован:  1 год 1 месяц   |    Скачан:  0 раз

Полного источника не было: Никогда

 
   
 
 
 

[Цитировать]

Представление или Шарлотта и ее отбивная / Présentation ou Charlotte et son steak
Страна: Франция
Жанр: короткометражка, мелодрама
Год выпуска: 1960
Продолжительность: 00:09:29
Перевод: Субтитры (F_G)
Cубтитры: русские
Оригинальная аудиодорожка: французский
Режиссер: Эрик Ромер / Eric Rohmer
В ролях: Жан-Люк Годар, Стефан Одран, Анна Карина, Андрее Бертран, Anne Couderet
Описание: Провожая на вокзал Клару, Вальтер встречает Шарлотту. Он напрашивается к ней в гости, втайне лелея надежду поцеловать девушку, но она готовит кофе и стейк и не нуждается в его внимании. Вальтер не отступает и в итоге добивается своего: Шарлотта целует его, но эмоциональной близости между ними не возникает…

Качество видео: BDRip Исходник
Формат видео: AVI
Видео: 608x448, 25.000 fps, XviD ~1186 kbps avg, 0.174 bit/pixel
Аудио: 48 kHz, MPEG Layer 3, 1 ch, ~96 kbps avg[

MediaInfo

Общее
Полное имя                               : D:\Представление или Шарлотта и ее отбивная\Представление или Шарлотта и ее отбивная BDRip.avi
Формат                                   : AVI
Формат/Информация                        : Audio Video Interleave
Размер файла                             : 87,6 Мбайт
Продолжительность                        : 9 м. 29 с.
Общий поток                              : 1292 Кбит/сек
Программа кодирования                    : VirtualDubMod 1.5.10.3 | www.virtualdub-fr.org || (build 2550/release)
Библиотека кодирования                   : VirtualDubMod build 2550/release
Видео
Идентификатор                            : 0
Формат                                   : MPEG-4 Visual
Профиль формата                          : Advanced Simple@L5
Параметр BVOP формата                    : 2
Параметр QPel формата                    : Нет
Параметр GMC формата                     : Без точки перехода
Параметр матрицы формата                 : Выборочная
Идентификатор кодека                     : XVID
Идентификатор кодека/Подсказка           : XviD
Продолжительность                        : 9 м. 29 с.
Битрейт                                  : 1186 Кбит/сек
Ширина                                   : 608 пикселей
Высота                                   : 448 пикселей
Соотношение сторон                       : 4:3
Частота кадров                           : 25,000 кадров/сек
Цветовое пространство                    : YUV
Субдискретизация насыщенности            : 4:2:0
Битовая глубина                          : 8 бит
Тип развёртки                            : Прогрессивная
Метод сжатия                             : С потерями
Бит/(Пиксели*Кадры)                      : 0.174
Размер потока                            : 80,5 Мбайт (92%)
Библиотека кодирования                   : XviD 1.2.1 (UTC 2008-12-04)
Аудио
Идентификатор                            : 1
Формат                                   : MPEG Audio
Версия формата                           : Version 1
Профиль формата                          : Layer 3
Идентификатор кодека                     : 55
Идентификатор кодека/Подсказка           : MP3
Продолжительность                        : 9 м. 28 с.
Вид битрейта                             : Постоянный
Битрейт                                  : 96,0 Кбит/сек
Каналы                                   : 1 канал
Частота                                  : 48,0 КГц
Метод сжатия                             : С потерями
Размер потока                            : 6,50 Мбайт (7%)
Выравнивание                             : Соединение по промежуткам
Продолжительность промежутка             : 40  мс. (1,00 видеокадр)
Время предзагрузки промежутка            : 504  мс.
Библиотека кодирования                   : LAME3.99r
Настройки программы                      : -m m -V 4 -q 0 -lowpass 20.5 -b 96

Скриншот c названием фильма

Скриншоты

Пример субтитров

3
00:00:04,175 --> 00:00:06,314
Большое спасибо Эрику Ромеру и
Жан-Люку Годару.
4
00:00:06,512 --> 00:00:08,652
За включение его в серию
"Шарлотта и Вероника".
5
00:00:14,622 --> 00:00:17,504
"Представление"
6
00:00:17,622 --> 00:00:21,104
...или "Шарлотта и её отбивная".
7
00:00:24,173 --> 00:00:27,109
Шарлотта еще не покинула родную Швейцарию.
8
00:00:27,147 --> 00:00:30,083
Уолтер знакомит с ней Клару,
в надежде вызвать у Шарлотты ревность.
9
00:00:31,986 --> 00:00:33,394
Вот она.
10
00:00:36,149 --> 00:00:37,710
- Привет.
- Привет, Клара.
11
00:00:41,047 --> 00:00:44,366
- Клара... Шарлотта.
- Я, правда, тороплюсь...
[teatrix.ru].t3993.torrent 
Торрент: Зарегистрирован [ 2015-10-07 12:13 ] · 8E7BB340EDCFB3AD5D07D09959DED0B28E5A1AB3

Скачать .torrent

Скачать

56 KB

Статус: проверено
Скачан: 0 раз
Размер: 88 MB
terms.php



Быстрый ответ

Имя:

      
Для отправки сообщений необходимо включить JavaScript
Показать сообщения:    

Текущее время: 04-Дек 04:53

Часовой пояс: UTC + 3


Вы можете начинать темы
Вы можете отвечать на сообщения
Вы не можете редактировать свои сообщения
Вы не можете удалять свои сообщения
Вы не можете голосовать в опросах
Вы не можете прикреплять файлы к сообщениям
Вы можете скачивать файлы