Береника / Berenice (Эрик Ромер / Eric Rohmer) [1954, Франция, короткометражка, драма, BDRip] Sub Rus + Original Fre


Статистика раздачи [Обновить пиров]
Размер:  222 MB   |    Зарегистрирован:  1 год 2 месяца   |    Скачан:  0 раз

Полного источника не было: Никогда

 
   
 
 
 

[Цитировать]

Береника / Berenice
Страна: Франция
Жанр: короткометражка, драма
Год выпуска: 1954
Продолжительность: 00:21:28
Перевод: Субтитры (М. Васильев aka lakdhf)
Cубтитры: русские
Оригинальная аудиодорожка: французский
Режиссер: Эрик Ромер / Eric Rohmer
В ролях: Эрик Ромер, Тереза Граца
Описание: Вот и встретились две стихии... Великий Эрик Ромер экранизировал культовый рассказ Эдгара Алана По "Береника".
Рассказ, в свое время шокировавший публику (подробности можно прочитать в Википедии, да и сейчас чтение этого текста - занятие не из приятных), получил вполне адекватное киновоплощение (в рассказе всего 21 абзац, режиссеру понадобилась ровно 21 минута).

Качество видео: BDRip Исходник
Формат видео: AVI
Видео: 608x448, 25.000 fps, XviD ~1343 kbps avg, 0.197 bit/pixel
Аудио: 48 kHz, MPEG Layer 3, 1 ch, ~96 kbps avg
Формат субтитров: softsub (SRT)

MediaInfo

Общее
Полное имя                               : D:\Раздачи\Berenice\Berenice.1954.BDRip.avi
Формат                                   : AVI
Формат/Информация                        : Audio Video Interleave
Размер файла                             : 222 Мбайт
Продолжительность                        : 21 м.
Общий поток                              : 1448 Кбит/сек
Программа кодирования                    : VirtualDubMod 1.5.10.3 | www.virtualdub-fr.org || (build 2550/release)
Библиотека кодирования                   : VirtualDubMod build 2550/release
Видео
Идентификатор                            : 0
Формат                                   : MPEG-4 Visual
Профиль формата                          : Advanced Simple@L5
Параметр BVOP формата                    : 2
Параметр QPel формата                    : Нет
Параметр GMC формата                     : Без точки перехода
Параметр матрицы формата                 : Выборочная
Идентификатор кодека                     : XVID
Идентификатор кодека/Подсказка           : XviD
Продолжительность                        : 21 м.
Битрейт                                  : 1343 Кбит/сек
Ширина                                   : 608 пикселей
Высота                                   : 448 пикселей
Соотношение сторон                       : 4:3
Частота кадров                           : 25,000 кадров/сек
Цветовое пространство                    : YUV
Субдискретизация насыщенности            : 4:2:0
Битовая глубина                          : 8 бит
Тип развёртки                            : Прогрессивная
Метод сжатия                             : С потерями
Бит/(Пиксели*Кадры)                      : 0.197
Размер потока                            : 205 Мбайт (93%)
Библиотека кодирования                   : XviD 1.2.1 (UTC 2008-12-04)
Аудио
Идентификатор                            : 1
Формат                                   : MPEG Audio
Версия формата                           : Version 1
Профиль формата                          : Layer 3
Идентификатор кодека                     : 55
Идентификатор кодека/Подсказка           : MP3
Продолжительность                        : 21 м.
Вид битрейта                             : Постоянный
Битрейт                                  : 96,0 Кбит/сек
Каналы                                   : 1 канал
Частота                                  : 48,0 КГц
Метод сжатия                             : С потерями
Размер потока                            : 14,7 Мбайт (7%)
Выравнивание                             : Соединение по промежуткам
Продолжительность промежутка             : 40  мс. (1,00 видеокадр)
Время предзагрузки промежутка            : 504  мс.
Библиотека кодирования                   : LAME3.99r
Настройки программы                      : -m m -V 4 -q 0 -lowpass 20.5 -b 96

Скриншоты

[teatrix.ru].t3994.torrent 
Торрент: Зарегистрирован [ 2015-10-07 12:13 ] · EB5490636CA2A1A5D3293A2DCD3E4CAFE3D65C1B

Скачать .torrent

Скачать

139 KB

Статус: проверено
Скачан: 0 раз
Размер: 222 MB
terms.php



Быстрый ответ

Имя:

      
Для отправки сообщений необходимо включить JavaScript
Показать сообщения:    

Текущее время: 11-Дек 05:19

Часовой пояс: UTC + 3


Вы можете начинать темы
Вы можете отвечать на сообщения
Вы не можете редактировать свои сообщения
Вы не можете удалять свои сообщения
Вы не можете голосовать в опросах
Вы не можете прикреплять файлы к сообщениям
Вы можете скачивать файлы