Надя в Париже / Nadja a Paris / Nadja in Paris (Эрик Ромер / Eric Rohmer) [1964, Франция, короткометражка, BDRip] Sub Rus + Original Fre


Статистика раздачи [Обновить пиров]
Размер:  129 MB   |    Зарегистрирован:  1 год 1 месяц   |    Скачан:  0 раз

Полного источника не было: Никогда

 
   
 
 
 

[Цитировать]

Надя в Париже / Nadja a Paris / Nadja in Paris
Страна: Франция
Жанр: короткометражка
Год выпуска: 1964
Продолжительность: 00:13:21
Перевод: Субтитры (n_mambasa)
Cубтитры: русские
Оригинальная аудиодорожка: французский
Режиссер: Эрик Ромер / Eric Rohmer
В ролях: Надя Тесич
Описание: Надя, американка с югославскими корнями, живет в университетском городке в Париже. Она пишет диссертацию о Прусте. Еще Надя любит гулять по Парижу, заводить новые знакомства, общаться с людьми.

Качество видео: BDRip Исходник
Формат видео: AVI
Видео: 608x432, 24.000 fps, XviD ~1243 kbps avg, 0.197 bit/pixel
Аудио: 48 kHz, MPEG Layer 3, 1 ch, ~96 kbps avg
Формат субтитров: softsub (SRT)

MediaInfo

Общее
Полное имя                               : D:\Раздачи\Надя в Париже\Надя в Париже BDRip.avi
Формат                                   : AVI
Формат/Информация                        : Audio Video Interleave
Размер файла                             : 129 Мбайт
Продолжительность                        : 13 м.
Общий поток                              : 1348 Кбит/сек
Программа кодирования                    : VirtualDubMod 1.5.10.3 | www.virtualdub-fr.org || (build 2550/release)
Библиотека кодирования                   : VirtualDubMod build 2550/release
Видео
Идентификатор                            : 0
Формат                                   : MPEG-4 Visual
Профиль формата                          : Advanced Simple@L5
Параметр BVOP формата                    : 2
Параметр QPel формата                    : Нет
Параметр GMC формата                     : Без точки перехода
Параметр матрицы формата                 : Выборочная
Идентификатор кодека                     : XVID
Идентификатор кодека/Подсказка           : XviD
Продолжительность                        : 13 м.
Битрейт                                  : 1243 Кбит/сек
Ширина                                   : 608 пикселей
Высота                                   : 432 пикселя
Соотношение сторон                       : 1,407
Частота кадров                           : 24,000 кадра/сек
Цветовое пространство                    : YUV
Субдискретизация насыщенности            : 4:2:0
Битовая глубина                          : 8 бит
Тип развёртки                            : Прогрессивная
Метод сжатия                             : С потерями
Бит/(Пиксели*Кадры)                      : 0.197
Размер потока                            : 119 Мбайт (92%)
Библиотека кодирования                   : XviD 1.2.1 (UTC 2008-12-04)
Аудио
Идентификатор                            : 1
Формат                                   : MPEG Audio
Версия формата                           : Version 1
Профиль формата                          : Layer 3
Идентификатор кодека                     : 55
Идентификатор кодека/Подсказка           : MP3
Продолжительность                        : 13 м.
Вид битрейта                             : Постоянный
Битрейт                                  : 96,0 Кбит/сек
Каналы                                   : 1 канал
Частота                                  : 48,0 КГц
Метод сжатия                             : С потерями
Размер потока                            : 9,17 Мбайт (7%)
Выравнивание                             : Соединение по промежуткам
Продолжительность промежутка             : 42  мс. (1,00 видеокадр)
Время предзагрузки промежутка            : 504  мс.
Библиотека кодирования                   : LAME3.99r
Настройки программы                      : -m m -V 4 -q 0 -lowpass 20.5 -b 96

Скриншот c названием фильма

Скриншоты

Пример субтитров

3
00:00:42,742 --> 00:00:45,300
Я американка и югославка.
4
00:00:45,942 --> 00:00:49,397
Я родилась в Белграде,
но выросла в Америке.
5
00:00:50,443 --> 00:00:54,205
Университетский городок напоминает
американские университеты.
6
00:00:54,409 --> 00:00:57,341
Такая же атмосфера
расслабленности.
7
00:00:58,909 --> 00:01:00,398
Но есть и отличия:
8
00:01:01,009 --> 00:01:04,237
Здесь живут люди
со всех концов света.
9
00:01:11,176 --> 00:01:13,598
Газоны здесь не являются
запретной зоной,
10
00:01:13,743 --> 00:01:15,257
что редко встретишь во Франции.
11
00:01:16,042 --> 00:01:19,167
Можно ходить по ним
и просто посидеть.
12
00:01:21,276 --> 00:01:22,687
Парк огромный.
13
00:01:23,216 --> 00:01:27,875
Там есть специальные
площадки для игр и корты.
14
00:01:40,309 --> 00:01:43,241
Я не занимаюсь никаким спортом,
15
00:01:43,809 --> 00:01:45,298
кроме бега,
16
00:01:45,508 --> 00:01:47,338
вот я и бегаю.
17
00:02:00,309 --> 00:02:02,241
Опасность в том,
18
00:02:02,443 --> 00:02:05,283
что здесь чувствуешь себя очень комфортно
и нет никакого желания выходить.
19
00:02:05,342 --> 00:02:09,550
Все, что мне необходимо
для работы или для отдыха,
20
00:02:09,575 --> 00:02:12,041
находится под рукой.
21
00:02:24,675 --> 00:02:29,462
Здесь много всяких
развлечений: концерты, кино
22
00:02:31,342 --> 00:02:34,796
в каждом корпусе есть
своя театральная группа.
[teatrix.ru].t3995.torrent 
Торрент: Зарегистрирован [ 2015-10-07 12:13 ] · D6BF24299A34FF68200F1843481EE56B9332FE11

Скачать .torrent

Скачать

81 KB

Статус: проверено
Скачан: 0 раз
Размер: 129 MB
terms.php



Быстрый ответ

Имя:

      
Для отправки сообщений необходимо включить JavaScript
Показать сообщения:    

Текущее время: 06-Дек 13:16

Часовой пояс: UTC + 3


Вы можете начинать темы
Вы можете отвечать на сообщения
Вы не можете редактировать свои сообщения
Вы не можете удалять свои сообщения
Вы не можете голосовать в опросах
Вы не можете прикреплять файлы к сообщениям
Вы можете скачивать файлы