Вероника и лентяй / Véronique et son cancre (Эрик Ромер / Eric Rohmer) [1958, Франция, короткометражка, комедия, BDRip] VO + Sub Rus + Original Fre


Статистика раздачи [Обновить пиров]
Размер:  194 MB   |    Зарегистрирован:  1 год 2 месяца   |    Скачан:  0 раз

Полного источника не было: Никогда

 
   
 
 
 

[Цитировать]

Вероника и лентяй / Véronique et son cancre
Страна: Франция
Жанр: короткометражка, комедия
Год выпуска: 1958
Продолжительность: 00:18:39
Перевод: Одноголосый закадровый
Cубтитры: русские
Оригинальная аудиодорожка: французский
Режиссер: Эрик Ромер / Eric Rohmer
В ролях: Николь Берже, Алэн Дельрье, Стелла Дассас
Описание: Вероника — молодая преподавательница, которая дает частные уроки маленькому лентяю, Кристофу. Кристоф искренне не понимает зачем ему это нужно и порой ставит свою преподавательницу в затруднительное положение.

Качество видео: BDRip
Формат видео: AVI
Видео: 608x432, 24.000 fps, XviD ~1256 kbps avg, 0.199 bit/pixel
Аудио: 48 kHz, MPEG Layer 3, 1 ch, ~96 kbps avg одноголоска
Аудио 2: 48 kHz, MPEG Layer 3, 1 ch, ~96 kbps avg французский (отдельным файлом)
Формат субтитров: softsub (SRT)

MediaInfo

Общее
Полное имя                               : D:\Вероника и лентяй\Вероника и лентяй BDRip.avi
Формат                                   : AVI
Формат/Информация                        : Audio Video Interleave
Размер файла                             : 182 Мбайт
Продолжительность                        : 18 м.
Общий поток                              : 1361 Кбит/сек
Программа кодирования                    : VirtualDubMod 1.5.10.3 | www.virtualdub-fr.org || (build 2550/release)
Библиотека кодирования                   : VirtualDubMod build 2550/release
Видео
Идентификатор                            : 0
Формат                                   : MPEG-4 Visual
Профиль формата                          : Advanced Simple@L5
Параметр BVOP формата                    : 2
Параметр QPel формата                    : Нет
Параметр GMC формата                     : Без точки перехода
Параметр матрицы формата                 : Выборочная
Идентификатор кодека                     : XVID
Идентификатор кодека/Подсказка           : XviD
Продолжительность                        : 18 м.
Битрейт                                  : 1256 Кбит/сек
Ширина                                   : 608 пикселей
Высота                                   : 432 пикселя
Соотношение сторон                       : 1,407
Частота кадров                           : 24,000 кадра/сек
Цветовое пространство                    : YUV
Субдискретизация насыщенности            : 4:2:0
Битовая глубина                          : 8 бит
Тип развёртки                            : Прогрессивная
Метод сжатия                             : С потерями
Бит/(Пиксели*Кадры)                      : 0.199
Размер потока                            : 168 Мбайт (92%)
Библиотека кодирования                   : XviD 1.2.1 (UTC 2008-12-04)
Аудио
Идентификатор                            : 1
Формат                                   : MPEG Audio
Версия формата                           : Version 1
Профиль формата                          : Layer 3
Идентификатор кодека                     : 55
Идентификатор кодека/Подсказка           : MP3
Продолжительность                        : 18 м.
Вид битрейта                             : Постоянный
Битрейт                                  : 96,0 Кбит/сек
Каналы                                   : 1 канал
Частота                                  : 48,0 КГц
Метод сжатия                             : С потерями
Размер потока                            : 12,8 Мбайт (7%)
Выравнивание                             : Соединение по промежуткам
Продолжительность промежутка             : 42  мс. (1,00 видеокадр)
Время предзагрузки промежутка            : 504  мс.
Библиотека кодирования                   : LAME3.99r
Настройки программы                      : -m m -V 4 -q 0 -lowpass 20.5 -b 96

Скриншот c названием фильма

Скриншоты

[teatrix.ru].t3998.torrent 
Торрент: Зарегистрирован [ 2015-10-07 12:13 ] · BB2D188168299944D21AE7F1C737366AFC1F5FB7

Скачать .torrent

Скачать

122 KB

Статус: проверено
Скачан: 0 раз
Размер: 194 MB
terms.php



Быстрый ответ

Имя:

      
Для отправки сообщений необходимо включить JavaScript
Показать сообщения:    

Текущее время: 11-Дек 14:57

Часовой пояс: UTC + 3


Вы можете начинать темы
Вы можете отвечать на сообщения
Вы не можете редактировать свои сообщения
Вы не можете удалять свои сообщения
Вы не можете голосовать в опросах
Вы не можете прикреплять файлы к сообщениям
Вы можете скачивать файлы