Великий Мельес / Le grand Melies / Le grand Méliès (Жорж Франжу / Georges Franju) [1952, Франция, биографическая драма, документально-игровой, короткий метр, DVB] Original (Fre) + Sub (rus)


Статистика раздачи [Обновить пиров]
Размер:  1.06 GB   |    Зарегистрирован:  1 год 3 месяца   |    Скачан:  0 раз

Полного источника не было: Никогда

 
   
 
 
 

[Цитировать]

Великий Мельес
Le grand Méliès- Страна: Франция
Жанр: биографическая драма, документально-игровой, короткий метр
Год выпуска: 1952
Продолжительность: 00:30:02
Перевод: Субтитры (перевод М. Кузиной, Éclair Group)
Cубтитры: русские
Оригинальная аудиодорожка: французский
Режиссер: Жорж Франжу / Georges FranjuВ ролях: Андре Мельес / André Méliès (Georges Méliès), Жанна д'Альси / Jeanne d'Alcy (Herself), Мари-Жорж Мельес / Marie-Georges Méliès (Herself), Франсуа Лальмен / François Lallement (Narrator, voice)
Описание: Уникальный фильм о жизни пионера кинематографа, в котором сын Жоржа Мельеса сыграл роль своего отца, а вторая жена великого новатора Жанна д'Альси, которой в ту пору уже исполнилось 87 лет, рискнула вновь появиться на экране спустя 50 лет после участия в фильме "Путешествие на Луну" (1902).
Фильм в общих чертах рассказывает о жизни режиссера, начинаясь со сцены, когда забытый всеми Жорж Мельес ради средств к существованию продает игрушки на Монпарнасе. Вы увидите знаменитую встречу с Луи Люмьером, первые натурные съемки, секреты некоторых трюков и трогательную сцену, когда внучка Жоржа Мельеса дарит букет своей бабушке…
За кадром звучат голоса Франсуа Лальмена, работника студии и актера Мельеса, и Жанны д'Альси, вспоминающей о прошлом.
Доп. информация: TV5MONDE DVB-S
http://www.imdb.com/title/tt0044671/
Сэмпл: http://multi-up.com/977703
Качество видео: DVB
Формат видео: MKV
Видео: MPEG Video 2, 704x576@1024x576 (16:9), 25 fps, ~4745 kbps avg, 0.468 bit/pixel
Аудио: Французский (48 kHz, MPEG Audio 2, 2 ch, ~192.00 kbps avg)
Формат субтитров: hardsub (неотключаемые)

MediaInfo

ОбщееУникальный идентификатор : 226761063459490758726433265215940395180 (0xAA98979CA1ED8BF3BF6CB352DF0100AC)Полное имя : H:\My Torrents\[apreder]MINI_MOVIE_008\[apreder]MM_Le_grand_Melies(1952)DVB.mkvФормат : MatroskaВерсия формата : Version 2Размер файла : 1,06 ГбайтПродолжительность : 30 м.Режим общего битрейта : ПеременныйОбщий поток : 5038 Кбит/секДата кодирования : UTC 2014-06-02 11:26:08Программа кодирования : mkvmerge v6.9.1 ('Blue Panther') 32bit built on Apr 18 2014 18:15:44Библиотека кодирования : libebml v1.3.0 + libmatroska v1.4.1
ВидеоИдентификатор : 1Формат : MPEG VideoВерсия формата : Version 2Профиль формата : Main@MainПараметр BVOP формата : НетПараметр матрицы формата : ВыборочнаяИдентификатор кодека : V_MPEG2Идентификатор кодека/Информация : MPEG 1 or 2 VideoПродолжительность : 30 м.Вид битрейта : ПеременныйБитрейт : 4745 Кбит/секМаксимальный битрейт : 9000 Кбит/секШирина : 704 пикселяВысота : 576 пикселейСоотношение сторон : 16:9Режим частоты кадров : ПостоянныйЧастота кадров : 25,000 кадров/секСтандарт вещания : PALЦветовое пространство : YUVСубдискретизация насыщенности : 4:2:0Битовая глубина : 8 битТип развёртки : ПрогрессивнаяПорядок развёртки : Верхнее поле первоеМетод сжатия : С потерямиБит/(Пиксели*Кадры) : 0.468Временной код первого кадра : 00:00:00:00Оригинал временного кода : Group of pictures headerРазмер потока : 1020 Мбайт (94%)Default : ДаForced : Нет
АудиоИдентификатор : 2Формат : MPEG AudioВерсия формата : Version 1Профиль формата : Layer 2Идентификатор кодека : A_MPEG/L2Идентификатор кодека/Подсказка : MP2Продолжительность : 30 м.Вид битрейта : ПостоянныйБитрейт : 192 Кбит/секКаналы : 2 каналаЧастота : 48,0 КГцМетод сжатия : С потерямиРазмер потока : 41,3 Мбайт (4%)Язык : FrenchDefault : ДаForced : Нет

Скриншот c названием фильма

Скриншоты

Резервные скриншоты

-1'403/1'383√[-4]
[teatrix.ru].t4022.torrent 
Торрент: Зарегистрирован [ 2015-10-07 12:13 ] · 7BC5DF53499D1D6010C7B0439A9655A601D11FF3

Скачать .torrent

Скачать

11 KB

Статус: проверено
Скачан: 0 раз
Размер: 1.06 GB
terms.php



Быстрый ответ

Имя:

      
Для отправки сообщений необходимо включить JavaScript
Показать сообщения:    

Текущее время: 19-Янв 22:16

Часовой пояс: UTC + 3


Вы можете начинать темы
Вы можете отвечать на сообщения
Вы не можете редактировать свои сообщения
Вы не можете удалять свои сообщения
Вы не можете голосовать в опросах
Вы не можете прикреплять файлы к сообщениям
Вы можете скачивать файлы