9 метров / 9 meter (Андерс Вальтер Хансен / Anders Walter) [2012, Дания, короткометражка, драма, WEB-DL 1080p] DVO + VO + Original (dan) + SUB (eng)


Статистика раздачи [Обновить пиров]
Размер:  558 MB   |    Зарегистрирован:  1 год 2 месяца   |    Скачан:  0 раз

Полного источника не было: Никогда

 
   
 
 
 

[Цитировать]

9 метров : 9 meter Страна: Дания
Год выпуска: 2012
Жанр: короткометражка, драма
Продолжительность: 00:16:11
Перевод:
Профессиональный (Двухголосый закадровый) - Эгоист ТВ
Одноголосый закадровый - datynet
русские субтитры: нет
Оригинальная аудиодорожка: датская-Режиссёр: Андерс Вальтер Хансен : Anders Walter
В главных ролях: Бенджамин Габриельсен / Benjamin Gabrielsen (Daniel), Оливер Метлинг Сёндергор / Oliver Methling Søndergaard (Bubka), Томас Бальдус / Thomas Baldus (Far), Кристине Альбек Бёрге / Christine Albeck Børge (Mor)-Описание: Шестнадцатилетний Дэниель навещает мать, которая находится в коматозном состоянии. Сын занимается прыжками в длину и верит, что мать реагирует на его новые рекорды. Однажды она подняла палец, когда он сообщил ей об очередном достижении. Но всему есть предел, и Дэниель не в силах достичь новых вершин, пока не узнает, что благодаря адреналину он сможет прыгнуть так далеко, что поставит мировой рекорд, но матери становится хуже, а врачи задумываются об отключении ее от приборов поддержания жизни. И в последней надежде на спасение матери Дэниель решается на отчаянный шаг.- -- Огромное спасибо ralf124c41+, за запись с канала Эгоист ТВ!
- Огромное спасибо Bezdaty, за озвучку datynet!
- Покупка WEB-DL и работа со звуком -Azureus--Качество: WEB-DL 1080p
Формат: MKV
Видео кодек: AVC
Аудио кодек: AC3
Видео: 1912x808, 25 fps, ~4143 kbps avg, 0.107 bit/pixel
Аудио #1: [RUS] 48 kHz, AC3 Dolby Digital, 2/0 (L,R) ch, ~192 kbps - DVO
Аудио #2: [RUS] 48 kHz, AC3 Dolby Digital, 2/0 (L,R) ch, ~192 kbps - VO
Аудио #3: [DAN] 48 kHz, AC3 Dolby Digital, 2/0 (L,R) ch, ~192 kbps
субтитры: английские (hardsub)
MediaInfo">

скриншоты MediaInfo


Общее
Уникальный идентификатор : 249429338984271197240231134696839263796 (0xBBA657E23CAA3C14AA6068BD2A3F3634)
Полное имя : D:\Im\9 МЕТРОВ\9 Meter.2012.WEB-DL 1080p.mkv
Формат : Matroska
Версия формата : Version 4 / Version 2
Размер файла : 558 Мбайт
Продолжительность : 16 м.
Общий поток : 4815 Кбит/сек
Название фильма : 9 Meter.2012.WEB-DL 1080p -Azureus-
Дата кодирования : UTC 2014-05-29 14:53:38
Программа кодирования : mkvmerge v6.9.1 ('Blue Panther') 32bit built on Apr 18 2014 18:15:44
Библиотека кодирования : libebml v1.3.0 + libmatroska v1.4.1
Видео
Идентификатор : 1
Формат : AVC
Формат/Информация : Advanced Video Codec
Профиль формата : High@L4.0
Параметр CABAC формата : Да
Параметр ReFrames формата : 5 кадров
Идентификатор кодека : V_MPEG4/ISO/AVC
Продолжительность : 16 м.
Битрейт : 4143 Кбит/сек
Ширина : 1912 пикселей
Высота : 808 пикселей
Соотношение сторон : 2,35:1
Режим частоты кадров : Постоянный
Частота кадров : 25,000 кадров/сек
Цветовое пространство : YUV
Субдискретизация насыщенности : 4:2:0
Битовая глубина : 8 бит
Тип развёртки : Прогрессивная
Бит/(Пиксели*Кадры) : 0.107
Размер потока : 480 Мбайт (86%)
Язык : English
Default : Да
Forced : Нет
Основные цвета : BT.709
Характеристики трансфера : BT.709
Коэффициенты матрицы : BT.709
Аудио #1
Идентификатор : 2
Формат : AC-3
Формат/Информация : Audio Coding 3
Расширение режима : CM (complete main)
Параметр Endianness формата : Big
Идентификатор кодека : A_AC3
Продолжительность : 16 м.
Вид битрейта : Постоянный
Битрейт : 192 Кбит/сек
Каналы : 2 канала
Расположение каналов : Front: L R
Частота : 48,0 КГц
Битовая глубина : 16 бит
Метод сжатия : С потерями
Размер потока : 22,2 Мбайт (4%)
Заголовок : DVO - Эгоист ТВ
Язык : Russian
Default : Да
Forced : Нет
Аудио #2
Идентификатор : 3
Формат : AC-3
Формат/Информация : Audio Coding 3
Расширение режима : CM (complete main)
Параметр Endianness формата : Big
Идентификатор кодека : A_AC3
Продолжительность : 16 м.
Вид битрейта : Постоянный
Битрейт : 192 Кбит/сек
Каналы : 2 канала
Расположение каналов : Front: L R
Частота : 48,0 КГц
Битовая глубина : 16 бит
Метод сжатия : С потерями
Размер потока : 22,2 Мбайт (4%)
Заголовок : VO - datynet
Язык : Russian
Default : Нет
Forced : Нет
Аудио #3
Идентификатор : 4
Формат : AC-3
Формат/Информация : Audio Coding 3
Расширение режима : CM (complete main)
Параметр Endianness формата : Big
Идентификатор кодека : A_AC3
Продолжительность : 16 м.
Вид битрейта : Постоянный
Битрейт : 192 Кбит/сек
Каналы : 2 канала
Расположение каналов : Front: L R
Частота : 48,0 КГц
Битовая глубина : 16 бит
Метод сжатия : С потерями
Размер потока : 22,2 Мбайт (4%)
Заголовок : DAN
Язык : Danish
Default : Нет
Forced : Нет
____________________________________________
Стою на раздаче до 5 дней.
Просьба скачавшим как можно дольше не покидать раздачу!
ВСЕМ ПРИЯТНОГО ПРОСМОТРА!_________________________________________
[teatrix.ru].t4023.torrent 
Торрент: Зарегистрирован [ 2015-10-07 12:13 ] · 21E686648886CD3C8186F9181B48DC6A64647EBE

Скачать .torrent

Скачать

11 KB

Статус: проверено
Скачан: 0 раз
Размер: 558 MB
terms.php



Быстрый ответ

Имя:

      
Для отправки сообщений необходимо включить JavaScript
Показать сообщения:    

Текущее время: 11-Дек 11:04

Часовой пояс: UTC + 3


Вы можете начинать темы
Вы можете отвечать на сообщения
Вы не можете редактировать свои сообщения
Вы не можете удалять свои сообщения
Вы не можете голосовать в опросах
Вы не можете прикреплять файлы к сообщениям
Вы можете скачивать файлы