9 метров / 9 meter (Андерс Вальтер Хансен / Anders Walter) [2012, Дания, короткометражка, драма, WEB-DL 720p] DVO + VO + Original (dan) + SUB (eng)


Статистика раздачи [Обновить пиров]
Размер:  526 MB   |    Зарегистрирован:  1 год 2 месяца   |    Скачан:  0 раз

Полного источника не было: Никогда

 
   
 
 
 

[Цитировать]

9 метров : 9 meter Страна: Дания
Год выпуска: 2012
Жанр: короткометражка, драма
Продолжительность: 00:16:11
Перевод:
Профессиональный (Двухголосый закадровый) - Эгоист ТВ
Одноголосый закадровый - datynet
русские субтитры: нет
Оригинальная аудиодорожка: датская-Режиссёр: Андерс Вальтер Хансен : Anders Walter
В главных ролях: Бенджамин Габриельсен / Benjamin Gabrielsen (Daniel), Оливер Метлинг Сёндергор / Oliver Methling Søndergaard (Bubka), Томас Бальдус / Thomas Baldus (Far), Кристине Альбек Бёрге / Christine Albeck Børge (Mor)-Описание: Шестнадцатилетний Дэниель навещает мать, которая находится в коматозном состоянии. Сын занимается прыжками в длину и верит, что мать реагирует на его новые рекорды. Однажды она подняла палец, когда он сообщил ей об очередном достижении. Но всему есть предел, и Дэниель не в силах достичь новых вершин, пока не узнает, что благодаря адреналину он сможет прыгнуть так далеко, что поставит мировой рекорд, но матери становится хуже, а врачи задумываются об отключении ее от приборов поддержания жизни. И в последней надежде на спасение матери Дэниель решается на отчаянный шаг.- -- Огромное спасибо ralf124c41+, за запись с канала Эгоист ТВ!
- Огромное спасибо Bezdaty, за озвучку datynet!
- Покупка WEB-DL и работа со звуком -Azureus--Качество: WEB-DL 720p
Формат: MKV
Видео кодек: AVC
Аудио кодек: AC3
Видео: 960x540@1280x540, 25 fps, ~3874 kbps avg, 0.299 bit/pixel
Аудио #1: [RUS] 48 kHz, AC3 Dolby Digital, 2/0 (L,R) ch, ~192 kbps - DVO
Аудио #2: [RUS] 48 kHz, AC3 Dolby Digital, 2/0 (L,R) ch, ~192 kbps - VO
Аудио #3: [DAN] 48 kHz, AC3 Dolby Digital, 2/0 (L,R) ch, ~192 kbps
субтитры: английские (hardsub)
MediaInfo">

скриншоты MediaInfo


Общее
Уникальный идентификатор : 193213865262203958763493681118287089458 (0x915BA30A6E900696BEAE09EFE49DCF32)
Полное имя : D:\Im\9 МЕТРОВ\9 Meter.2012.WEB-DL 720p.mkv
Формат : Matroska
Версия формата : Version 4 / Version 2
Размер файла : 526 Мбайт
Продолжительность : 16 м.
Общий поток : 4540 Кбит/сек
Название фильма : 9 Meter.2012.WEB-DL 720p -Azureus-
Дата кодирования : UTC 2014-05-29 14:56:29
Программа кодирования : mkvmerge v6.9.1 ('Blue Panther') 32bit built on Apr 18 2014 18:15:44
Библиотека кодирования : libebml v1.3.0 + libmatroska v1.4.1
Видео
Идентификатор : 1
Формат : AVC
Формат/Информация : Advanced Video Codec
Профиль формата : Main@L3.1
Параметр CABAC формата : Нет
Параметр ReFrames формата : 2 кадра
Идентификатор кодека : V_MPEG4/ISO/AVC
Продолжительность : 16 м.
Битрейт : 3874 Кбит/сек
Ширина : 960 пикселей
Высота : 540 пикселей
Соотношение сторон : 2,40:1
Режим частоты кадров : Постоянный
Частота кадров : 25,000 кадров/сек
Цветовое пространство : YUV
Субдискретизация насыщенности : 4:2:0
Битовая глубина : 8 бит
Тип развёртки : Прогрессивная
Бит/(Пиксели*Кадры) : 0.299
Размер потока : 449 Мбайт (85%)
Язык : English
Default : Да
Forced : Нет
Основные цвета : BT.709
Характеристики трансфера : BT.709
Коэффициенты матрицы : BT.709
Аудио #1
Идентификатор : 2
Формат : AC-3
Формат/Информация : Audio Coding 3
Расширение режима : CM (complete main)
Параметр Endianness формата : Big
Идентификатор кодека : A_AC3
Продолжительность : 16 м.
Вид битрейта : Постоянный
Битрейт : 192 Кбит/сек
Каналы : 2 канала
Расположение каналов : Front: L R
Частота : 48,0 КГц
Битовая глубина : 16 бит
Метод сжатия : С потерями
Размер потока : 22,2 Мбайт (4%)
Заголовок : DVO - Эгоист ТВ
Язык : Russian
Default : Да
Forced : Нет
Аудио #2
Идентификатор : 3
Формат : AC-3
Формат/Информация : Audio Coding 3
Расширение режима : CM (complete main)
Параметр Endianness формата : Big
Идентификатор кодека : A_AC3
Продолжительность : 16 м.
Вид битрейта : Постоянный
Битрейт : 192 Кбит/сек
Каналы : 2 канала
Расположение каналов : Front: L R
Частота : 48,0 КГц
Битовая глубина : 16 бит
Метод сжатия : С потерями
Размер потока : 22,2 Мбайт (4%)
Заголовок : VO - datynet
Язык : Russian
Default : Нет
Forced : Нет
Аудио #3
Идентификатор : 4
Формат : AC-3
Формат/Информация : Audio Coding 3
Расширение режима : CM (complete main)
Параметр Endianness формата : Big
Идентификатор кодека : A_AC3
Продолжительность : 16 м.
Вид битрейта : Постоянный
Битрейт : 192 Кбит/сек
Каналы : 2 канала
Расположение каналов : Front: L R
Частота : 48,0 КГц
Битовая глубина : 16 бит
Метод сжатия : С потерями
Размер потока : 22,2 Мбайт (4%)
Заголовок : DAN
Язык : Danish
Default : Нет
Forced : Нет
____________________________________________
Стою на раздаче до 5 дней.
Просьба скачавшим как можно дольше не покидать раздачу!
ВСЕМ ПРИЯТНОГО ПРОСМОТРА!_________________________________________
[teatrix.ru].t4024.torrent 
Торрент: Зарегистрирован [ 2015-10-07 12:13 ] · F823BE901C4C6D58CCC1D1975445321E2FF37884

Скачать .torrent

Скачать

11 KB

Статус: проверено
Скачан: 0 раз
Размер: 526 MB
terms.php



Быстрый ответ

Имя:

      
Для отправки сообщений необходимо включить JavaScript
Показать сообщения:    

Текущее время: 09-Дек 08:54

Часовой пояс: UTC + 3


Вы можете начинать темы
Вы можете отвечать на сообщения
Вы не можете редактировать свои сообщения
Вы не можете удалять свои сообщения
Вы не можете голосовать в опросах
Вы не можете прикреплять файлы к сообщениям
Вы можете скачивать файлы