9 метров / 9 meter (Андерс Вальтер Хансен / Anders Walter) [2012, Дания, короткометражка, драма, WEB-DLRip] DVO + VO + Original (dan) + SUB (eng)


Статистика раздачи [Обновить пиров]
Размер:  249 MB   |    Зарегистрирован:  1 год 2 месяца   |    Скачан:  0 раз

Полного источника не было: Никогда

 
   
 
 
 

[Цитировать]

9 метров : 9 meter Страна: Дания
Год выпуска: 2012
Жанр: короткометражка, драма
Продолжительность: 00:16:11
Перевод:
Профессиональный (Двухголосый закадровый) - Эгоист ТВ
Одноголосый закадровый - datynet
русские субтитры: нет
Оригинальная аудиодорожка: датская-Режиссёр: Андерс Вальтер Хансен : Anders Walter
В главных ролях: Бенджамин Габриельсен / Benjamin Gabrielsen (Daniel), Оливер Метлинг Сёндергор / Oliver Methling Søndergaard (Bubka), Томас Бальдус / Thomas Baldus (Far), Кристине Альбек Бёрге / Christine Albeck Børge (Mor)-Описание: Шестнадцатилетний Дэниель навещает мать, которая находится в коматозном состоянии. Сын занимается прыжками в длину и верит, что мать реагирует на его новые рекорды. Однажды она подняла палец, когда он сообщил ей об очередном достижении. Но всему есть предел, и Дэниель не в силах достичь новых вершин, пока не узнает, что благодаря адреналину он сможет прыгнуть так далеко, что поставит мировой рекорд, но матери становится хуже, а врачи задумываются об отключении ее от приборов поддержания жизни. И в последней надежде на спасение матери Дэниель решается на отчаянный шаг.- -- Огромное спасибо ralf124c41+, за запись с канала Эгоист ТВ!
- Огромное спасибо Bezdaty, за озвучку datynet!
- Кодирование видео и работа со звуком -Azureus--Качество: WEB-DLRip |WEB-DL 720p|
Формат: AVI
Видео кодек: XviD
Аудио кодек: AC3
Видео: 720x304, (2.37:1), 25 fps, XviD build 65 ~1552 kbps avg, 0.28 bit/pixel
Аудио #1: [RUS] 48 kHz, AC3 Dolby Digital, 2/0 (L,R) ch, ~192 kbps - DVO
Аудио #2: [RUS] 48 kHz, AC3 Dolby Digital, 2/0 (L,R) ch, ~192 kbps - VO
Аудио #3: [DAN] 48 kHz, AC3 Dolby Digital, 2/0 (L,R) ch, ~192 kbps
субтитры: английские (hardsub)
MediaInfo">

скриншоты MediaInfo


Общее
Полное имя : D:\Im\9 МЕТРОВ\9 Meter.2012.WEB-DLRip -Azureus-.avi
Формат : AVI
Формат/Информация : Audio Video Interleave
Размер файла : 249 Мбайт
Продолжительность : 16 м.
Общий поток : 2149 Кбит/сек
Название фильма : 9 Meter.2012.WEB-DLRip -Azureus-
Программа кодирования : VirtualDubMod 1.5.10.3 (build 2550/release)
Библиотека кодирования : VirtualDubMod build 2550/release
Видео
Идентификатор : 0
Формат : MPEG-4 Visual
Профиль формата : Advanced Simple@L5
Параметр BVOP формата : 2
Параметр QPel формата : Нет
Параметр GMC формата : Без точки перехода
Параметр матрицы формата : Выборочная
Идентификатор кодека : XVID
Идентификатор кодека/Подсказка : XviD
Продолжительность : 16 м.
Битрейт : 1554 Кбит/сек
Ширина : 720 пикселей
Высота : 304 пикселя
Соотношение сторон : 2,35:1
Частота кадров : 25,000 кадров/сек
Цветовое пространство : YUV
Субдискретизация насыщенности : 4:2:0
Битовая глубина : 8 бит
Тип развёртки : Прогрессивная
Метод сжатия : С потерями
Бит/(Пиксели*Кадры) : 0.284
Размер потока : 180 Мбайт (72%)
Библиотека кодирования : XviD 65
Аудио #1
Идентификатор : 1
Формат : AC-3
Формат/Информация : Audio Coding 3
Расширение режима : CM (complete main)
Параметр Endianness формата : Big
Идентификатор кодека : 2000
Продолжительность : 16 м.
Вид битрейта : Постоянный
Битрейт : 192 Кбит/сек
Каналы : 2 канала
Расположение каналов : Front: L R
Частота : 48,0 КГц
Битовая глубина : 16 бит
Метод сжатия : С потерями
Размер потока : 22,2 Мбайт (9%)
Выравнивание : Разделение по промежуткам
Продолжительность промежутка : 40 мс. (1,00 видеокадр)
Время предзагрузки промежутка : 500 мс.
Аудио #2
Идентификатор : 2
Формат : AC-3
Формат/Информация : Audio Coding 3
Расширение режима : CM (complete main)
Параметр Endianness формата : Big
Идентификатор кодека : 2000
Продолжительность : 16 м.
Вид битрейта : Постоянный
Битрейт : 192 Кбит/сек
Каналы : 2 канала
Расположение каналов : Front: L R
Частота : 48,0 КГц
Битовая глубина : 16 бит
Метод сжатия : С потерями
Размер потока : 22,2 Мбайт (9%)
Выравнивание : Разделение по промежуткам
Продолжительность промежутка : 40 мс. (1,00 видеокадр)
Время предзагрузки промежутка : 500 мс.
Аудио #3
Идентификатор : 3
Формат : AC-3
Формат/Информация : Audio Coding 3
Расширение режима : CM (complete main)
Параметр Endianness формата : Big
Идентификатор кодека : 2000
Продолжительность : 16 м.
Вид битрейта : Постоянный
Битрейт : 192 Кбит/сек
Каналы : 2 канала
Расположение каналов : Front: L R
Частота : 48,0 КГц
Битовая глубина : 16 бит
Метод сжатия : С потерями
Размер потока : 22,2 Мбайт (9%)
Выравнивание : Разделение по промежуткам
Продолжительность промежутка : 40 мс. (1,00 видеокадр)
Время предзагрузки промежутка : 500 мс.
____________________________________________
Стою на раздаче до 5 дней.
Просьба скачавшим как можно дольше не покидать раздачу!
ВСЕМ ПРИЯТНОГО ПРОСМОТРА!_________________________________________
[teatrix.ru].t4025.torrent 
Торрент: Зарегистрирован [ 2015-10-07 12:13 ] · EE062335C48957903C13A3E85A9F69E9EDBE4A17

Скачать .torrent

Скачать

20 KB

Статус: проверено
Скачан: 0 раз
Размер: 249 MB
terms.php



Быстрый ответ

Имя:

      
Для отправки сообщений необходимо включить JavaScript
Показать сообщения:    

Текущее время: 10-Дек 04:07

Часовой пояс: UTC + 3


Вы можете начинать темы
Вы можете отвечать на сообщения
Вы не можете редактировать свои сообщения
Вы не можете удалять свои сообщения
Вы не можете голосовать в опросах
Вы не можете прикреплять файлы к сообщениям
Вы можете скачивать файлы