Гелий / Helium (Андерс Вальтер Хансен / Anders Walter) [2014, Дания, короткометражка, драма, семейный, WEB-DL 720p] VO + Original (dan) + SUB (rus, eng)


Статистика раздачи [Обновить пиров]
Размер:  751 MB   |    Зарегистрирован:  1 год 2 месяца   |    Скачан:  0 раз

Полного источника не было: Никогда

 
   
 
 
 

[Цитировать]

Гелий : Helium Страна: Дания
Год выпуска: 2014
Жанр: короткометражка, драма, семейный
Продолжительность: 00:22:53
Перевод: Одноголосый закадровый - Алексей Яковлев
русские субтитры: есть
Оригинальная аудиодорожка: датская-Режиссёр: Андерс Вальтер Хансен : Anders Walter
В главных ролях: Каспер Крамп, Марьяна Янкович, Пеле Фалк Крусбаек-Описание: Маленький мальчик Альфред умирает, но благодаря историям о волшебном мире под названием «Гелий», которые ему рассказывает вахтер больницы — Энцо, мальчику снова удается почувствовать радость и счастье в своей жизни…- -- Огромное спасибо Alex Yakovlev, за предоставление чистого голоса!
- Огромное спасибо Mannenr, за русские субтитры!
- Покупка WEB-DL и работа со звуком -Azureus--Качество: WEB-DL 720p
Формат: MKV
Видео кодек: AVC
Аудио кодек: AC3
Видео: 1280x540, 23.976 fps, ~4112 kbps avg, 0.248 bit/pixel
Аудио #1: [RUS] 48 kHz, AC3 Dolby Digital, 2/0 (L,R) ch, ~192 kbps
Аудио #2: [DAN] 48 kHz, AC3 Dolby Digital, 2/0 (L,R) ch, ~192 kbps
субтитры: русские - Mannenr, английские (hardsub)

MediaInfo

Общее
Уникальный идентификатор : 223830991593412685015764543279714021384 (0xA86447EA517EB15BAAA175B9AFC03008)
Полное имя : D:\Im\Гелий\Helium.2014.WEB-DL 720p.mkv
Формат : Matroska
Версия формата : Version 4 / Version 2
Размер файла : 751 Мбайт
Продолжительность : 22 м.
Общий поток : 4587 Кбит/сек
Название фильма : Helium.2014.WEB-DL 720p -Azureus-
Дата кодирования : UTC 2014-05-21 11:43:17
Программа кодирования : mkvmerge v6.8.0 ('Theme for Great Cities') 32bit built on Mar 2 2014 21:27:07
Библиотека кодирования : libebml v1.3.0 + libmatroska v1.4.1
Видео
Идентификатор : 1
Формат : AVC
Формат/Информация : Advanced Video Codec
Профиль формата : Main@L3.1
Параметр CABAC формата : Нет
Параметр ReFrames формата : 2 кадра
Идентификатор кодека : V_MPEG4/ISO/AVC
Продолжительность : 22 м.
Битрейт : 4112 Кбит/сек
Ширина : 1280 пикселей
Высота : 540 пикселей
Соотношение сторон : 2,40:1
Режим частоты кадров : Постоянный
Частота кадров : 23,976 кадра/сек
Цветовое пространство : YUV
Субдискретизация насыщенности : 4:2:0
Битовая глубина : 8 бит
Тип развёртки : Прогрессивная
Бит/(Пиксели*Кадры) : 0.248
Размер потока : 673 Мбайт (90%)
Язык : English
Default : Да
Forced : Нет
Основные цвета : BT.709
Характеристики трансфера : BT.709
Коэффициенты матрицы : BT.709
Аудио #1
Идентификатор : 2
Формат : AC-3
Формат/Информация : Audio Coding 3
Расширение режима : CM (complete main)
Параметр Endianness формата : Big
Идентификатор кодека : A_AC3
Продолжительность : 22 м.
Вид битрейта : Постоянный
Битрейт : 192 Кбит/сек
Каналы : 2 канала
Расположение каналов : Front: L R
Частота : 48,0 КГц
Битовая глубина : 16 бит
Метод сжатия : С потерями
Размер потока : 31,4 Мбайт (4%)
Заголовок : VO - А. Яковлев
Язык : Russian
Default : Да
Forced : Нет
Аудио #2
Идентификатор : 3
Формат : AC-3
Формат/Информация : Audio Coding 3
Расширение режима : CM (complete main)
Параметр Endianness формата : Big
Идентификатор кодека : A_AC3
Продолжительность : 22 м.
Вид битрейта : Постоянный
Битрейт : 192 Кбит/сек
Каналы : 2 канала
Расположение каналов : Front: L R
Частота : 48,0 КГц
Битовая глубина : 16 бит
Метод сжатия : С потерями
Размер потока : 31,4 Мбайт (4%)
Заголовок : DAN
Язык : Danish
Default : Нет
Forced : Нет
Текст
Идентификатор : 4
Формат : UTF-8
Идентификатор кодека : S_TEXT/UTF8
Идентификатор кодека/Информация : UTF-8 Plain Text
Заголовок : Rus Sub - full
Язык : Russian
Default : Нет
Forced : Нет
____________________________________________
Стою на раздаче до 5 дней.
Просьба скачавшим как можно дольше не покидать раздачу!
ВСЕМ ПРИЯТНОГО ПРОСМОТРА!_________________________________________
[teatrix.ru].t4027.torrent 
Торрент: Зарегистрирован [ 2015-10-07 12:13 ] · 9318CA400028B600E6EA23404ED09E0677F55E0F

Скачать .torrent

Скачать

15 KB

Статус: проверено
Скачан: 0 раз
Размер: 751 MB
terms.php



Быстрый ответ

Имя:

      
Для отправки сообщений необходимо включить JavaScript
Показать сообщения:    

Текущее время: 09-Дек 08:54

Часовой пояс: UTC + 3


Вы можете начинать темы
Вы можете отвечать на сообщения
Вы не можете редактировать свои сообщения
Вы не можете удалять свои сообщения
Вы не можете голосовать в опросах
Вы не можете прикреплять файлы к сообщениям
Вы можете скачивать файлы