Гелий / Helium (Андерс Вальтер Хансен / Anders Walter) [2014, Дания, короткометражка, драма, семейный, WEB-DLRip] VO + Original (dan) + SUB (rus, eng)


Статистика раздачи [Обновить пиров]
Размер:  453 MB   |    Зарегистрирован:  1 год 1 месяц   |    Скачан:  0 раз

Полного источника не было: Никогда

 
   
 
 
 

[Цитировать]

Гелий : Helium Страна: Дания
Год выпуска: 2014
Жанр: короткометражка, драма, семейный
Продолжительность: 00:22:53
Перевод: Одноголосый закадровый - Алексей Яковлев
русские субтитры: есть
Оригинальная аудиодорожка: датская-Режиссёр: Андерс Вальтер Хансен : Anders Walter
В главных ролях: Каспер Крамп, Марьяна Янкович, Пеле Фалк Крусбаек-Описание: Маленький мальчик Альфред умирает, но благодаря историям о волшебном мире под названием «Гелий», которые ему рассказывает вахтер больницы — Энцо, мальчику снова удается почувствовать радость и счастье в своей жизни…- -- Огромное спасибо Alex Yakovlev, за предоставление чистого голоса!
- Огромное спасибо Mannenr, за русские субтитры!
- Кодирование видео и работа со звуком -Azureus--Качество: WEB-DLRip |WEB-DL 720p|
Формат: AVI
Видео кодек: XviD
Аудио кодек: AC3
Видео: 720x304, (2.37:1), 23.976 fps, XviD build 65 ~2369 kbps avg, 0.45 bit/pixel
Аудио #1: [RUS] 48 kHz, AC3 Dolby Digital, 2/0 (L,R) ch, ~192 kbps
Аудио #2: [DAN] 48 kHz, AC3 Dolby Digital, 2/0 (L,R) ch, ~192 kbps
субтитры: русские - Mannenr, английские (hardsub)

скриншоты


MediaInfo

Общее
Полное имя : D:\Im\Гелий\Helium.2014.WEB-DLRip -Azureus-\Helium.2014.WEB-DLRip.avi
Формат : AVI
Формат/Информация : Audio Video Interleave
Размер файла : 453 Мбайт
Продолжительность : 22 м.
Общий поток : 2768 Кбит/сек
Программа кодирования : VirtualDubMod 1.5.10.3 (build 2550/release)
Библиотека кодирования : VirtualDubMod build 2550/release
Видео
Идентификатор : 0
Формат : MPEG-4 Visual
Профиль формата : Advanced Simple@L5
Параметр BVOP формата : 2
Параметр QPel формата : Нет
Параметр GMC формата : Без точки перехода
Параметр матрицы формата : Выборочная
Идентификатор кодека : XVID
Идентификатор кодека/Подсказка : XviD
Продолжительность : 22 м.
Битрейт : 2370 Кбит/сек
Ширина : 720 пикселей
Высота : 304 пикселя
Соотношение сторон : 2,35:1
Частота кадров : 23,976 кадра/сек
Цветовое пространство : YUV
Субдискретизация насыщенности : 4:2:0
Битовая глубина : 8 бит
Тип развёртки : Прогрессивная
Метод сжатия : С потерями
Бит/(Пиксели*Кадры) : 0.452
Размер потока : 388 Мбайт (86%)
Библиотека кодирования : XviD 65
Аудио #1
Идентификатор : 1
Формат : AC-3
Формат/Информация : Audio Coding 3
Расширение режима : CM (complete main)
Параметр Endianness формата : Big
Идентификатор кодека : 2000
Продолжительность : 22 м.
Вид битрейта : Постоянный
Битрейт : 192 Кбит/сек
Каналы : 2 канала
Расположение каналов : Front: L R
Частота : 48,0 КГц
Битовая глубина : 16 бит
Метод сжатия : С потерями
Размер потока : 31,4 Мбайт (7%)
Выравнивание : Разделение по промежуткам
Продолжительность промежутка : 42 мс. (1,00 видеокадр)
Время предзагрузки промежутка : 500 мс.
Аудио #2
Идентификатор : 2
Формат : AC-3
Формат/Информация : Audio Coding 3
Расширение режима : CM (complete main)
Параметр Endianness формата : Big
Идентификатор кодека : 2000
Продолжительность : 22 м.
Вид битрейта : Постоянный
Битрейт : 192 Кбит/сек
Каналы : 2 канала
Расположение каналов : Front: L R
Частота : 48,0 КГц
Битовая глубина : 16 бит
Метод сжатия : С потерями
Размер потока : 31,4 Мбайт (7%)
Выравнивание : Разделение по промежуткам
Продолжительность промежутка : 42 мс. (1,00 видеокадр)
Время предзагрузки промежутка : 500 мс.
____________________________________________
Стою на раздаче до 5 дней.
Просьба скачавшим как можно дольше не покидать раздачу!
ВСЕМ ПРИЯТНОГО ПРОСМОТРА!_________________________________________
[teatrix.ru].t4028.torrent 
Торрент: Зарегистрирован [ 2015-10-07 12:13 ] · 601E8348D01FD42A802671A67DB1881807A4E3EF

Скачать .torrent

Скачать

18 KB

Статус: проверено
Скачан: 0 раз
Размер: 453 MB
terms.php



Быстрый ответ

Имя:

      
Для отправки сообщений необходимо включить JavaScript
Показать сообщения:    

Текущее время: 03-Дек 14:35

Часовой пояс: UTC + 3


Вы можете начинать темы
Вы можете отвечать на сообщения
Вы не можете редактировать свои сообщения
Вы не можете удалять свои сообщения
Вы не можете голосовать в опросах
Вы не можете прикреплять файлы к сообщениям
Вы можете скачивать файлы