Соло (Константин Лопушанский) [1980, драма, DVB]


Статистика раздачи [Обновить пиров]
Размер:  383 MB   |    Зарегистрирован:  1 год 1 месяц   |    Скачан:  1 раз

Полного источника не было: 10 месяцев 4 дня

 
   
 
 
 

[Цитировать]

Соло
Жанр: драма
Год выпуска: 1980
Продолжительность: 00:25:40
Режиссёр: Константин Лопушанский
В ролях: Николай Гринько, Людмила Аржанникова, Валентина Смирнова
Описание: Блокадный Ленинград, зима 1942 года. Солист симфонического оркестра работает над 5-й симфонией Чайковского. Концерт состоится в Ленинградской филармонии и будет транслироваться в Лондон...
Доп. информация: Запись потока *.ts со спутника HOT BIRD, ремукс в *.mpg программой VideoReDo.
Качество видео: DVB
Формат видео: MPEG-PS
Видео: MPEG Video, 704(768)x576 (4:3), 25,000 кадров/сек, 1790 Кбит/сек
Аудио: MPEG Audio, 48,0 КГц, 192 Кбит/сек, 2 канала

MediaInfo

Общее
Полное имя : D:\MPG\СОЛО (Nashe Kino).mpg
Формат : MPEG-PS
Размер файла : 383 Мбайт
Продолжительность : 25 м.
Режим общего битрейта : Переменный
Общий поток : 2088 Кбит/сек
Видео
Идентификатор : 224 (0xE0)
Формат : MPEG Video
Версия формата : Version 2
Профиль формата : Main@Main
Параметр BVOP формата : Да
Параметр матрицы формата : Выборочная
Параметр GOP формата : Variable
Продолжительность : 25 м.
Вид битрейта : Переменный
Битрейт : 1790 Кбит/сек
Максимальный битрейт : 15,0 Мбит/сек
Ширина : 704 пикселя
Высота : 576 пикселей
Соотношение сторон : 4:3
Частота кадров : 25,000 кадров/сек
Стандарт вещания : PAL
Цветовое пространство : YUV
Субдискретизация насыщенности : 4:2:0
Битовая глубина : 8 бит
Тип развёртки : Чересстрочная
Порядок развёртки : Верхнее поле первое
Метод сжатия : С потерями
Бит/(Пиксели*Кадры) : 0.177
Временной код первого кадра : 00:00:00:00
Оригинал временного кода : Group of pictures header
Размер потока : 329 Мбайт (86%)
Аудио #1
Идентификатор : 192 (0xC0)
Формат : MPEG Audio
Версия формата : Version 1
Профиль формата : Layer 2
Продолжительность : 25 м.
Вид битрейта : Постоянный
Битрейт : 192 Кбит/сек
Каналы : 2 канала
Частота : 48,0 КГц
Метод сжатия : С потерями
Задержка видео : 5 мс.
Размер потока : 35,3 Мбайт (9%)
Аудио #2
Идентификатор : 193 (0xC1)
Формат : MPEG Audio
Версия формата : Version 1
Профиль формата : Layer 2
Продолжительность : 25 м.
Вид битрейта : Постоянный
Битрейт : 64,0 Кбит/сек
Каналы : 2 канала
Частота : 48,0 КГц
Метод сжатия : С потерями
Задержка видео : 5 мс.
Размер потока : 11,8 Мбайт (3%)

Скриншоты

[teatrix.ru].t4030.torrent 
Торрент: Зарегистрирован [ 2015-10-07 12:13 ] · B9241206955B713AAD527378F10609137313C8C7

Скачать .torrent

Скачать

15 KB

Статус: проверено
Скачан: 1 раз
Размер: 383 MB
terms.php



Быстрый ответ

Имя:

      
Для отправки сообщений необходимо включить JavaScript
Показать сообщения:    

Текущее время: 07-Дек 00:52

Часовой пояс: UTC + 3


Вы можете начинать темы
Вы можете отвечать на сообщения
Вы не можете редактировать свои сообщения
Вы не можете удалять свои сообщения
Вы не можете голосовать в опросах
Вы не можете прикреплять файлы к сообщениям
Вы можете скачивать файлы