Когда приближаются сумерки / Yoiyami semareba / When Twilight Draws Near (Акио Дзиссодзи / Акио Джиссоджи / Akio Jissoji) [1969, Япония, драма, DVDRip] + Sub Rus


Статистика раздачи [Обновить пиров]
Размер:  415 MB   |    Зарегистрирован:  1 год 2 месяца   |    Скачан:  0 раз

Полного источника не было: Никогда

 
   
 
 
 

[Цитировать]

Когда приближаются сумерки / Yoiyami semareba / When Twilight Draws Near
Страна: Япония
Жанр: драма
Год выпуска: 1969
Продолжительность: 00:43:21
Перевод: Субтитры
Cубтитры: русские
Оригинальная аудиодорожка: японский
Режиссер: Акио Дзиссодзи / Акио Джиссоджи / Akio Jissoji
В ролях: Бэн Хиура, Юмико Митомэ, Рэн Сайто, Кодзи Симидзу.
Описание: Четверо молодых людей от скуки решают сыграть в опасную игру – кто дольше просидит в наполняющейся газом комнате...
Первый фильм японского режиссера Акио Дзиссодзи ("Бренность человеческой жизни", "Мандала", "Мир Утамаро"). Снят по сценарию Нагисы Осимы.
Доп. информация: Файл взят с Карагарги. Перевод – marwcharw.
Сэмпл: http://multi-up.com/972469
Качество видео: DVDRip
Формат видео: AVI
Видео: DivX 5 640x480 29.97fps 1199kbps
Аудио: MPEG Audio Layer 3 44100Hz stereo 128kbps
Формат субтитров: softsub (SRT)

Фрагмент субтитров

67
00:04:36,050 --> 00:04:37,810
Может, чаю выпьете?
68
00:04:37,810 --> 00:04:40,360
Нет, спасибо.
69
00:05:27,560 --> 00:05:28,860
Помогите кто-нибудь.
70
00:05:28,860 --> 00:05:29,640
Дай мне.
71
00:05:36,980 --> 00:05:37,870
Не заворачивается.
72
00:05:51,770 --> 00:05:53,320
Мне страшно.
73
00:05:55,590 --> 00:05:56,310
Подожди.
74
00:05:57,440 --> 00:05:58,290
Оставь так.
75
00:06:00,290 --> 00:06:03,120
Не закрывай газ.
76
00:06:04,910 --> 00:06:09,190
Посмотрим, кто дольше всех
продержится в комнате!
77
00:06:09,600 --> 00:06:10,840
Те, кто уйдут первыми - проиграли.
78
00:06:10,840 --> 00:06:11,900
А что, прикольно.
79
00:06:12,600 --> 00:06:13,440
Почему бы нет?
80
00:06:14,730 --> 00:06:16,100
Ты в порядке?
81
00:06:16,800 --> 00:06:17,680
Конечно.
82
00:06:18,200 --> 00:06:20,310
Хорошо. Тогда начинаем.
83
00:06:22,980 --> 00:06:25,600
Раз мы играем, давайте делать ставки.
84
00:06:25,600 --> 00:06:27,300
Хорошо! 500 йен?
85
00:06:27,300 --> 00:06:28,520
У меня столько нет.
86
00:06:28,520 --> 00:06:30,470
300 йен.
87
00:06:30,470 --> 00:06:31,860
Дай мелочь.
88
00:06:31,860 --> 00:06:32,990
Быстрее.
89
00:06:34,250 --> 00:06:35,840
Хватит!
90
00:06:35,840 --> 00:06:36,960
Достал уже.

MediaInfo

Формат : AVI
Формат/Информация : Audio Video Interleave
Размер файла : 415 Мбайт
Продолжительность : 43 мин. 21 сек.
Общий поток : 1 339 Кбит/сек
Видео
Идентификатор: 0
Формат : MPEG-4 Visual
Параметр BVOP формата : 1
Параметр QPel формата : Нет
Параметр GMC формата : Без точки перехода
Параметр матрицы формата : Default (H.263)
Идентификатор кодека : DX50
Идентификатор кодека/Подсказка : DivX 5
Продолжительность : 43 мин. 21 сек.
Битрейт : 1 199 Кбит/сек
Ширина : 640 пикс.
Высота : 480 пикс.
Соотношение сторон : 4:3
Частота кадров : 29.970 кадр/сек
Цветовое пространство : YUV
Подвыборка цветности : 4:2:0
Битовая глубина : 8 бит
Тип развёртки : Прогрессивная
Метод сжатия : С потерями
Бит/(Пиксели*Кадры) : 0.130
Размер потока : 372 Мбайт (90%)
Библиотека кодирования : DivX 6.6.1.4
Аудио
Идентификатор : 1
Формат : MPEG Audio
Версия формата : Version 1
Профиль формата : Layer 3
Идентификатор кодека : 55
Продолжительность : 43 мин. 21 сек.
Вид битрейта : Постоянный
Битрейт : 128 Кбит/сек
Канал(ы) : 2 канала(ов)
Частота : 44,1 КГц
Метод сжатия : С потерями
Размер потока : 39,7 Мбайт (10%)
Выравнивание : Разделение по промежуткам
Продолжительность промежутка : 33 мс. (1,00 видеокадр)

Скриншот c названием фильма

Скриншоты





[teatrix.ru].t4035.torrent 
Торрент: Зарегистрирован [ 2015-10-07 12:13 ] · 560BE4366D05457F8143336F10E694080706EE61

Скачать .torrent

Скачать

17 KB

Статус: проверено
Скачан: 0 раз
Размер: 415 MB
terms.php



Быстрый ответ

Имя:

      
Для отправки сообщений необходимо включить JavaScript
Показать сообщения:    

Текущее время: 07-Дек 21:19

Часовой пояс: UTC + 3


Вы можете начинать темы
Вы можете отвечать на сообщения
Вы не можете редактировать свои сообщения
Вы не можете удалять свои сообщения
Вы не можете голосовать в опросах
Вы не можете прикреплять файлы к сообщениям
Вы можете скачивать файлы