Человек, который женился на самом себе / The Man Who Married Himself (Гэррик Хэмм / Garrick Hamm) [2010, Великобритания, комедия, короткометражка, WEBRip] + Sub Rus + Original Eng


Статистика раздачи [Обновить пиров]
Размер:  86 MB   |    Зарегистрирован:  1 год 1 месяц   |    Скачан:  0 раз

Полного источника не было: Никогда

 
   
 
 
 

[Цитировать]

Человек, который женился на самом себе / The Man Who Married Himself
Страна: Великобритания
Жанр: комедия, короткометражка
Год выпуска: 2010
Продолжительность: 00:10:51
Перевод: Субтитры
Cубтитры: русские
Оригинальная аудиодорожка: английский
Режиссер: Гэррик Хэмм / Garrick Hamm
В ролях: Ричард И. Грант, Уоррен Кларк, Эмилия Фокс, Селия Имри
Описание: Оливер переживает кризис среднего возраста и решает жениться - на самом себе. Это история его отношений, и рассказ о том, как он узнал кое-что неожиданное о жизни и любви. По одноименному рассказу Чарли Фиша.
Доп. информация: Награды:
Лучшая комедия (L.A. International Shorts Film Festival 2010)
Лучшая комедия (Rhode Island International Film Festival 2010)
Участник конкурсной программы - London International Film Festival 2010
Сайты:
http://www.imdb.com/title/tt1612087/?ref_=fn_tt_tt_1
Сэмпл: http://rusfolder.com/40637691
Качество видео: WEBRip
Формат видео: AVI
Видео: 856x480 (1.78:1), 25 fps, XviD build 50 ~961 kbps avg, 0.09 bit/pixel
Аудио: 44.100 kHz, MPEG Layer 3, 2 ch, ~128.00 kbps avg
Формат субтитров: softsub (SRT)

MediaInfo

Общее
Полное имя : D:\User\Videos\grant\The Man Who Married Himself\The Man Who Married Himself.avi
Формат : AVI
Формат/Информация : Audio Video Interleave
Размер файла : 85,6 Мбайт
Продолжительность : 10 м.
Общий поток : 1102 Кбит/сек
Библиотека кодирования : The File had been created by Solveig Multimedia AVI Writer
Видео
Идентификатор : 0
Формат : MPEG-4 Visual
Профиль формата : Advanced Simple@L5
Параметр BVOP формата : 2
Параметр QPel формата : Нет
Параметр GMC формата : Без точки перехода
Параметр матрицы формата : Default (H.263)
Идентификатор кодека : XVID
Идентификатор кодека/Подсказка : XviD
Продолжительность : 10 м.
Битрейт : 962 Кбит/сек
Ширина : 856 пикселей
Высота : 480 пикселей
Соотношение сторон : 16:9
Частота кадров : 25,000 кадров/сек
Цветовое пространство : YUV
Субдискретизация насыщенности : 4:2:0
Битовая глубина : 8 бит
Тип развёртки : Прогрессивная
Метод сжатия : С потерями
Бит/(Пиксели*Кадры) : 0.094
Размер потока : 74,7 Мбайт (87%)
Библиотека кодирования : XviD 1.2.1 (UTC 2008-12-04)
Аудио
Идентификатор : 1
Формат : MPEG Audio
Версия формата : Version 1
Профиль формата : Layer 3
Режим : Joint stereo
Расширение режима : MS Stereo
Идентификатор кодека : 55
Идентификатор кодека/Подсказка : MP3
Продолжительность : 10 м.
Вид битрейта : Постоянный
Битрейт : 128 Кбит/сек
Каналы : 2 канала
Частота : 44,1 КГц
Метод сжатия : С потерями
Задержка видео : 2 мс.
Размер потока : 9,94 Мбайт (12%)
Выравнивание : Разделение по промежуткам
Продолжительность промежутка : 26 мс. (0,65 видеокадр)
Время предзагрузки промежутка : 5 мс.
Библиотека кодирования : LAME3.98.4ЄЄЄЄ

Скриншоты



l

[teatrix.ru].t4036.torrent 
Торрент: Зарегистрирован [ 2015-10-07 12:13 ] · 60335DBBA0435207C54A7D3AB205B328B946AB45

Скачать .torrent

Скачать

14 KB

Статус: проверено
Скачан: 0 раз
Размер: 86 MB
terms.php



Быстрый ответ

Имя:

      
Для отправки сообщений необходимо включить JavaScript
Показать сообщения:    

Текущее время: 05-Дек 19:40

Часовой пояс: UTC + 3


Вы можете начинать темы
Вы можете отвечать на сообщения
Вы не можете редактировать свои сообщения
Вы не можете удалять свои сообщения
Вы не можете голосовать в опросах
Вы не можете прикреплять файлы к сообщениям
Вы можете скачивать файлы