Крейцерова соната / La sonate a Kreutzer (Эрик Ромер / Eric Rohmer) [1956, Франция, Драма, DVDRip] Sub Rus + Original Fre


Статистика раздачи [Обновить пиров]
Размер:  724 MB   |    Зарегистрирован:  1 год 2 месяца   |    Скачан:  0 раз

Полного источника не было: 1 день 8 часов

 
   
 
 
 

[Цитировать]

Крейцерова соната / La sonate a Kreutzer
Страна: Франция
Жанр: Драма
Год выпуска: 1956
Продолжительность: 00:43:48
Перевод: Субтитры (М. Васильев aka lakdhf)
Cубтитры: русские
Оригинальная аудиодорожка: французский
Режиссер: Эрик Ромер / Eric Rohmer
В ролях: Жан-Клод Бриали, Франсуаза Мартинелли, Эрик Ромер
Описание: Эрик Ромер обратил свой взор на самое скандальное произведение Льва Толстого. Как и положено великому визионеру, Ромер не следует за текстом классика, а, отталкиваясь от него, создает собственную историю любви, ревности и ненависти.
Релиз состоялся благодаря пользователю трекера DarLeg
Сэмпл: http://yadi.sk/d/YHC7fAZ0NzTwi
Качество видео: DVDRip
Формат видео: AVI
Видео: 2116 Kbps, 704x512 (1.375) 24 000 fps, MPEG 4 XviD
Аудио: 192 Kbps, 48.0 KHz, 16 bits, AC 3, 1 ch
Формат субтитров: softsub (SRT)

MediaInfo

General
Complete name : C:\Users\Владелец\Desktop\La.sonate.à.Kreutzer.1956 BDRip.avi
Format : AVI
Format/Info : Audio Video Interleave
File size : 723 MiB
Duration : 43mn 48s
Overall bit rate : 2 309 Kbps
Writing application : VirtualDubMod 1.5.10.2 (build 2540/release)
Writing library : VirtualDubMod build 2540/release
Video
ID : 0
Format : MPEG-4 Visual
Format profile : Advanced Simple@L5
Format settings, BVOP : 1
Format settings, QPel : No
Format settings, GMC : No warppoints
Format settings, Matrix : Custom
Codec ID : XVID
Codec ID/Hint : XviD
Duration : 43mn 48s
Bit rate : 2 116 Kbps
Width : 704 pixels
Height : 512 pixels
Display aspect ratio : 1.375
Frame rate : 24.000 fps
Color space : YUV
Chroma subsampling : 4:2:0
Bit depth : 8 bits
Scan type : Progressive
Compression mode : Lossy
Bits/(Pixel*Frame) : 0.245
Stream size : 663 MiB (92%)
Writing library : XviD 65
Audio
ID : 1
Format : AC-3
Format/Info : Audio Coding 3
Mode extension : CM (complete main)
Format settings, Endianness : Big
Codec ID : 2000
Duration : 42mn 2s
Bit rate mode : Constant
Bit rate : 192 Kbps
Channel(s) : 1 channel
Channel positions : Front: C
Sampling rate : 48.0 KHz
Bit depth : 16 bits
Compression mode : Lossy
Stream size : 57.7 MiB (8%)
Alignment : Split accross interleaves
Interleave, duration : 43 ms (1.04 video frame)
Interleave, preload duration : 500 ms

Скриншот c названием фильма

Скриншоты





Cубтитры

1
00:02:09,547 --> 00:02:11,641
Нет, это совсем не ревность,
ничего похожего
2
00:02:11,761 --> 00:02:13,861
Это нечто более страшное
3
00:02:14,184 --> 00:02:17,617
Это ненависть,
всепроникающая ненависть
4
00:02:18,537 --> 00:02:19,368
Я убил ее
5
00:02:19,628 --> 00:02:23,188
Сама ее жизнь была грубым
оскорблением всего,
6
00:02:23,600 --> 00:02:25,516
что было дорого мне
7
00:02:25,636 --> 00:02:27,474
А она сама была живым отрицанием
8
00:02:27,594 --> 00:02:30,348
Она отрицала мои желания
9
00:02:30,468 --> 00:02:32,036
и даже мои мысли
10
00:02:32,353 --> 00:02:33,736
Зачем мы встретились?
11
00:02:33,800 --> 00:02:38,554
Почему я сразу же не отвел
от нее взгляд?
12
00:02:40,032 --> 00:02:43,103
Впервые я увидел ее в том клубе
13
00:02:43,223 --> 00:02:46,250
и сразу понял, что
мы с ней не ровня
14
00:02:47,253 --> 00:02:49,981
Возможно поэтому я и начал
страстно желать ее
15
00:02:50,101 --> 00:02:52,348
как еще не желал
ни одну женщину
16
00:02:53,181 --> 00:02:55,641
Почему я обратил на нее внимание?
17
00:02:55,761 --> 00:03:00,104
Да все из-за каких-то пустяков:
слегка выступающие скулы
18
00:03:00,224 --> 00:03:03,346
и этот вечно грустный взгляд,
19
00:03:03,466 --> 00:03:05,752
который оставался таким даже,
когда она улыбалась
20
00:03:08,347 --> 00:03:12,357
Всего год назад
все было хорошо
[teatrix.ru].t4045.torrent 
Торрент: Зарегистрирован [ 2015-10-07 12:13 ] · 3B26A83ED14A5A44881D71638A0EC7B099A3B7E7

Скачать .torrent

Скачать

15 KB

Статус: проверено
Скачан: 0 раз
Размер: 724 MB
terms.php



Быстрый ответ

Имя:

      
Для отправки сообщений необходимо включить JavaScript
Показать сообщения:    

Текущее время: 10-Дек 11:52

Часовой пояс: UTC + 3


Вы можете начинать темы
Вы можете отвечать на сообщения
Вы не можете редактировать свои сообщения
Вы не можете удалять свои сообщения
Вы не можете голосовать в опросах
Вы не можете прикреплять файлы к сообщениям
Вы можете скачивать файлы