Сэппуку – последний удар / Zeppitsu / La ultima pincelada / The Last Brushstroke (Андрес Гевара / Andres Guevara / Andrés Guevara) [2009, Испания, эстетский трагифарс, короткий метр, DVB] VO (Эгоист ТВ)


Статистика раздачи [Обновить пиров]
Размер:  40 MB   |    Зарегистрирован:  1 год 2 месяца   |    Скачан:  0 раз

Полного источника не было: Никогда

 
   
 
 
 

[Цитировать]

Сэппуку – последний удар
Zeppitsu- Страна: Испания
Жанр: эстетский трагифарс, короткий метр
Год выпуска: 2009
Продолжительность: 00:02:58
Перевод: Студийный (одноголосый закадровый) Эгоист ТВ
Cубтитры: нет
Режиссер: Андрес Гевара / Andrés Guevara
В ролях: Сальвадор Серрано / Salvador SerranoОписание: Звучит ария из оперы Джакомо Пуччини "Мадам Баттерфляй".
"Zeppitsu", также называеый "Yuigon" (букв. "вспарывание живота"), - это ритуал бусидо, самурайского кодекса чести, когда воин обращает свою обнаженную душу лицом к себе и к вечности.
Доп. информация: Эгоист ТВ
Сэмпл: http://multi-up.com/968717
Качество видео: DVB-IPTV
Формат видео: MPEG-PS (См. при проблемах с просмотром видео)
Видео: MPEG Video 2, 720x576@1024x576 (16:9), 25 fps, ~1615 kbps avg, 0.156 bit/pixel
Аудио: 48 kHz, AC-3, 2 ch, ~192.00 kbps avg

MediaInfo

Полное имя : H:\My Torrents\[apreder]MINI_MOVIE_008\[apreder]MM_Zeppitsu(2009)DVB.mpgФормат : MPEG-PSРазмер файла : 39,7 МбайтПродолжительность : 3 м. 0 с.Режим общего битрейта : ПеременныйОбщий поток : 1844 Кбит/сек
ВидеоИдентификатор : 224 (0xE0)Формат : MPEG VideoВерсия формата : Version 2Профиль формата : Main@MainПараметр BVOP формата : НетПараметр матрицы формата : По умолчаниюПараметр GOP формата : N=15Продолжительность : 3 м. 0 с.Вид битрейта : ПеременныйБитрейт : 1615 Кбит/секМаксимальный битрейт : 9000 Кбит/секШирина : 720 пикселейВысота : 576 пикселейСоотношение сторон : 16:9Частота кадров : 25,000 кадров/секСтандарт вещания : PALЦветовое пространство : YUVСубдискретизация насыщенности : 4:2:0Битовая глубина : 8 битТип развёртки : ПрогрессивнаяМетод сжатия : С потерямиБит/(Пиксели*Кадры) : 0.156Временной код первого кадра : 00:00:00:00Оригинал временного кода : Group of pictures headerРазмер потока : 34,8 Мбайт (88%)
АудиоИдентификатор : 189 (0xBD)-128 (0x80)Формат : AC-3Формат/Информация : Audio Coding 3Расширение режима : CM (complete main)Параметр Endianness формата : BigРежим смешивания : DVD-VideoПродолжительность : 3 м. 0 с.Вид битрейта : ПостоянныйБитрейт : 192 Кбит/секКаналы : 2 каналаРасположение каналов : Front: L RЧастота : 48,0 КГцБитовая глубина : 16 битМетод сжатия : С потерямиРазмер потока : 4,13 Мбайт (10%)

Скриншот c названием фильма

Скриншоты

Резервные скриншоты

-1'269/1'250√[-4]
[teatrix.ru].t4054.torrent 
Торрент: Зарегистрирован [ 2015-10-07 12:13 ] · 28F28638F22D149616ED1461AE0FCBF2FE98E85D

Скачать .torrent

Скачать

13 KB

Статус: проверено
Скачан: 0 раз
Размер: 40 MB
terms.php



Быстрый ответ

Имя:

      
Для отправки сообщений необходимо включить JavaScript
Показать сообщения:    

Текущее время: 09-Дек 16:35

Часовой пояс: UTC + 3


Вы можете начинать темы
Вы можете отвечать на сообщения
Вы не можете редактировать свои сообщения
Вы не можете удалять свои сообщения
Вы не можете голосовать в опросах
Вы не можете прикреплять файлы к сообщениям
Вы можете скачивать файлы