9 метров / Девять метров / 9 Meter (Андерс Вальтер / Anders Walter) [2012, Дания, драма, короткий метр, DVB] DVO (Эгоист ТВ)


Статистика раздачи [Обновить пиров]
Размер:  276 MB   |    Зарегистрирован:  1 год 3 месяца   |    Скачан:  0 раз

Полного источника не было: Никогда

 
   
 
 
 

[Цитировать]

9 метров
9 Meter- Страна: Дания
Жанр: драма, короткий метр
Год выпуска: 2012
Продолжительность: 00:15:27
Перевод: Профессиональный (двухголосый закадровый) Эгоист ТВ
Cубтитры: нет
Режиссер: Андерс Вальтер / Anders WalterВ ролях: Бенджамин Габриельсен / Benjamin Gabrielsen (Daniel), Оливер Метлинг Сёндергор / Oliver Methling Søndergaard (Bubka), Томас Бальдус / Thomas Baldus (Far), Кристине Альбек Бёрге / Christine Albeck Børge (Mor)
Описание: 16-летний Даниель навещает мать, которая находится в коматозном состоянии. Сын занимается прыжками в длину и верит, что мать реагирует на его новые рекорды. Однажды она подняла палец, когда он сообщил ей об очередном достижении. Но всему есть предел, и Даниель не в силах достичь новых вершин, пока не узнает, что благодаря адреналину он сможет прыгнуть так далеко, что поставит мировой рекорд, но матери становится хуже, а врачи задумываются об отключении ее от приборов поддержания жизни. И в последней надежде на спасение матери, Даниель решается на отчаянный шаг. (Mannenr)
Доп. информация: Эгоист ТВ
Награды: приз Зрительских симпатий Odense International Film Festival 2013; приз Зрительских симпатий São Paulo International Short Film Festival 2013 за лучшую короткометражку; приз Roma Independent Film Festival 2014 за лучшую короткометражку; номинация Robert Festival 2014 на лучшую короткометражку. Фильм был включен в шорт-лист премии "Оскар" 2013.
http://www.imdb.com/title/tt2489700/
Сэмпл: http://multi-up.com/968707
Качество видео: DVB-IPTV
Формат видео: MPEG-PS (См. при проблемах с просмотром видео)
Видео: MPEG Video 2, 720x576@1024x576 (16:9), 25 fps, ~2251 kbps avg, 0.217 bit/pixel
Аудио: 48 kHz, AC-3, 2 ch, ~192.00 kbps avg

MediaInfo

Полное имя : H:\My Torrents\[apreder]MINI_MOVIE_008\[apreder]MM_9_Meter(2012)DVB.mpgФормат : MPEG-PSРазмер файла : 276 МбайтПродолжительность : 15 м.Режим общего битрейта : ПеременныйОбщий поток : 2492 Кбит/сек
ВидеоИдентификатор : 224 (0xE0)Формат : MPEG VideoВерсия формата : Version 2Профиль формата : Main@MainПараметр BVOP формата : НетПараметр матрицы формата : По умолчаниюПараметр GOP формата : N=15Продолжительность : 15 м.Вид битрейта : ПеременныйБитрейт : 2251 Кбит/секМаксимальный битрейт : 9000 Кбит/секШирина : 720 пикселейВысота : 576 пикселейСоотношение сторон : 16:9Частота кадров : 25,000 кадров/секСтандарт вещания : PALЦветовое пространство : YUVСубдискретизация насыщенности : 4:2:0Битовая глубина : 8 битТип развёртки : ПрогрессивнаяМетод сжатия : С потерямиБит/(Пиксели*Кадры) : 0.217Временной код первого кадра : 00:00:00:00Оригинал временного кода : Group of pictures headerРазмер потока : 250 Мбайт (90%)
АудиоИдентификатор : 189 (0xBD)-128 (0x80)Формат : AC-3Формат/Информация : Audio Coding 3Расширение режима : CM (complete main)Параметр Endianness формата : BigРежим смешивания : DVD-VideoПродолжительность : 15 м.Вид битрейта : ПостоянныйБитрейт : 192 Кбит/секКаналы : 2 каналаРасположение каналов : Front: L RЧастота : 48,0 КГцБитовая глубина : 16 битМетод сжатия : С потерямиРазмер потока : 21,3 Мбайт (8%)

Скриншот c названием фильма

Скриншоты

Резервные скриншоты

-1'268/1'249√[-4]
[teatrix.ru].t4055.torrent 
Торрент: Зарегистрирован [ 2015-10-07 12:13 ] · CCD967ECE600C1A0BAAB492CEDFD871F601FC54C

Скачать .torrent

Скачать

11 KB

Статус: проверено
Скачан: 0 раз
Размер: 276 MB
terms.php



Быстрый ответ

Имя:

      
Для отправки сообщений необходимо включить JavaScript
Показать сообщения:    

Текущее время: 19-Янв 22:15

Часовой пояс: UTC + 3


Вы можете начинать темы
Вы можете отвечать на сообщения
Вы не можете редактировать свои сообщения
Вы не можете удалять свои сообщения
Вы не можете голосовать в опросах
Вы не можете прикреплять файлы к сообщениям
Вы можете скачивать файлы