Терапия / A Therapy (Роман Полански / Roman Polanski) [2012, Франция, комедия, короткий метр, DVDRip] DVO


Статистика раздачи [Обновить пиров]
Размер:  85 MB   |    Зарегистрирован:  1 год 1 месяц   |    Скачан:  0 раз

Полного источника не было: Никогда

 
   
 
 
 

[Цитировать]

Терапия / A Therapy
Страна: Франция
Жанр: комедия, короткий метр
Год выпуска: 2012
Продолжительность: 00:03:29
Перевод: Профессиональный (двухголосый закадровый)
Cубтитры: нет
Режиссер: Роман Полански / Roman Polanski
В ролях: Хелена Бонем Картер, Бен Кингсли
Описание: Пациентка пересказывает сон своему психоаналитику, но он, кажется, совсем ее не слушает. Его завораживает что-то другое...
Доп. информация: IMDB User Rating: 6.4/10 (420 votes)
Качество видео: DVDRip
Формат видео: AVI
Видео: 1088x608 (1.79:1), 25 fps, XviD MPEG-4 ~1212 kbps avg, 0.07 bit/pixel
Аудио: 44.100 kHz, MPEG Layer 3, 2 ch, ~128.00 kbps avg

MediaInfo

Общее
Полное имя : A_Therapy.avi
Формат : AVI
Формат/Информация : Audio Video Interleave
Размер файла : 33,8 Мбайт
Продолжительность : 3 м. 29 с.
Общий поток : 1354 Кбит/сек
Программа кодирования : MEncoder SVN-r22963
Библиотека кодирования : MPlayer
Видео
Идентификатор : 0
Формат : MPEG-4 Visual
Профиль формата : Simple@L1
Параметр BVOP формата : Нет
Параметр QPel формата : Нет
Параметр GMC формата : Без точки перехода
Параметр матрицы формата : Default (H.263)
Идентификатор кодека : XVID
Идентификатор кодека/Подсказка : XviD
Продолжительность : 3 м. 29 с.
Битрейт : 1213 Кбит/сек
Ширина : 1088 пикселей
Высота : 608 пикселей
Соотношение сторон : 16:9
Частота кадров : 25,000 кадров/сек
Цветовое пространство : YUV
Субдискретизация насыщенности : 4:2:0
Битовая глубина : 8 бит
Тип развёртки : Прогрессивная
Метод сжатия : С потерями
Бит/(Пиксели*Кадры) : 0.073
Размер потока : 30,3 Мбайт (90%)
Библиотека кодирования : Lavc51.40.2
Аудио
Идентификатор : 1
Формат : MPEG Audio
Версия формата : Version 1
Профиль формата : Layer 3
Идентификатор кодека : 55
Идентификатор кодека/Подсказка : MP3
Продолжительность : 3 м. 29 с.
Вид битрейта : Постоянный
Битрейт : 128 Кбит/сек
Каналы : 2 канала
Частота : 44,1 КГц
Метод сжатия : С потерями
Размер потока : 3,20 Мбайт (9%)
Выравнивание : Соединение по промежуткам
Продолжительность промежутка : 26 мс. (0,65 видеокадр)
Время предзагрузки промежутка : 522 мс.

Скриншот c названием фильма

Скриншоты

[teatrix.ru].t4056.torrent 
Торрент: Зарегистрирован [ 2015-10-07 12:13 ] · 98D1C3F20FE1F1116A31FD65AFADA0964DCBA068

Скачать .torrent

Скачать

14 KB

Статус: проверено
Скачан: 0 раз
Размер: 85 MB
terms.php



Быстрый ответ

Имя:

      
Для отправки сообщений необходимо включить JavaScript
Показать сообщения:    

Текущее время: 04-Дек 00:53

Часовой пояс: UTC + 3


Вы можете начинать темы
Вы можете отвечать на сообщения
Вы не можете редактировать свои сообщения
Вы не можете удалять свои сообщения
Вы не можете голосовать в опросах
Вы не можете прикреплять файлы к сообщениям
Вы можете скачивать файлы