Свиньи / Els porcs (Антони Падрос / Antoni Padros) [1972, Испания, короткий метр, сатира, экспериментальный, DVDRip-AVC] + Sub Rus


Статистика раздачи [Обновить пиров]
Размер:  177 MB   |    Зарегистрирован:  1 год 2 месяца   |    Скачан:  0 раз

Полного источника не было: Никогда

 
   
 
 
 

[Цитировать]

Свиньи / Els porcs
Страна: Испания
Жанр: короткий метр, сатира, экспериментальный
Год выпуска: 1972
Продолжительность: 00:14:29
Перевод: Субтитры (dicembre)
Cубтитры: русские
Оригинальная аудиодорожка: каталанский
Режиссер: Антони Падрос / Antoni Padros
В ролях: Роса Мората, актеры театра "La Troupe del Valles Occidental"
Описание:
Формальным поводом для фильма послужило реальное событие - суд в Кливленде приговорил студента провести 3 часа в свинарнике за оскорбление должностного лица.
Свиньи и должностные лица в фильме не фигурируют. Но овцы имеются.
Фильм не добрый, катарсис вряд ли.
Moltes gracies a maxp.
Доп. информация:

классификация и локализация

Антони Падрос:
"Когда меня ошибочно спрашивают:
- Ты принадлежишь к барселонской школе?
Я отвечаю:
- Ни за что! Я не принадлежу к барселонской школе. Я принадлежу к школе Западный Вальес, Террасса, а моя муза - Роса Мората. Чтоб вам было ясно!"
- об упомянутом Теренси (Terenci Moix) упоминается даже в русскоязычной вики;
- чья рожа на фото в толпе, я так и не поняла точно (Pere Portabella, учитель Падроса, или все-таки нет?) - если кто уверен, напишите, si us plau;
- упомянутые Лас Виолетас как бы в окрестностях Террассы, которая в Западном Вальесе, который примерно в окрестностях Барселоны.
Сэмпл: http://multi-up.com/962812
Качество видео: DVDRip-AVC
Формат видео: AVI
Видео: AVC, 640x464 (1,379), 1660 kbps, 25,000 fps, 0.224 bit/pixel
Аудио: MPEG Audio, 96,0 kbps, 48,0 KHz, 2 ch
Формат субтитров: softsub (SRT)

MediaInfo

Общее
Полное имя : C:\Users\Asus\Documents\TRANSLATE\Els Porcs 1972\Els Porcs 1972.avi
Формат : AVI
Формат/Информация : Audio Video Interleave
Размер файла : 177 Мбайт
Продолжительность : 14 м.
Общий поток : 1703 Кбит/сек
Программа кодирования : Lavf55.21.100
Видео
Идентификатор : 0
Формат : AVC
Формат/Информация : Advanced Video Codec
Профиль формата : High@L3.0
Параметр CABAC формата : Да
Параметр ReFrames формата : 4 кадра
Идентификатор кодека : H264
Продолжительность : 14 м.
Битрейт : 1660 Кбит/сек
Ширина : 640 пикселей
Высота : 464 пикселя
Соотношение сторон : 1,379
Режим частоты кадров : Переменный
Частота кадров : 25,000 кадров/сек
Цветовое пространство : YUV
Субдискретизация насыщенности : 4:2:0
Битовая глубина : 8 бит
Тип развёртки : Прогрессивная
Бит/(Пиксели*Кадры) : 0.224
Размер потока : 165 Мбайт (94%)
Библиотека кодирования : x264 core 140 r2377 1ca7bb9
Настройки программы : cabac=1 / ref=3 / deblock=1:0:0 / analyse=0x3:0x113 / me=hex / subme=7 / psy=1 / psy_rd=1.00:0.00 / mixed_ref=1 / me_range=16 / chroma_me=1 / trellis=1 / 8x8dct=1 / cqm=0 / deadzone=21,11 / fast_pskip=1 / chroma_qp_offset=-2 / threads=3 / lookahead_threads=1 / sliced_threads=0 / nr=0 / decimate=1 / interlaced=0 / bluray_compat=0 / constrained_intra=0 / bframes=3 / b_pyramid=2 / b_adapt=2 / b_bias=0 / direct=1 / weightb=1 / open_gop=0 / weightp=2 / keyint=250 / keyint_min=25 / scenecut=40 / intra_refresh=0 / rc_lookahead=40 / rc=abr / mbtree=1 / bitrate=1660 / ratetol=1.0 / qcomp=0.60 / qpmin=0 / qpmax=69 / qpstep=4 / ip_ratio=1.41 / aq=1:1.00
Аудио
Идентификатор : 1
Формат : MPEG Audio
Версия формата : Version 1
Профиль формата : Layer 3
Режим : Joint stereo
Расширение режима : MS Stereo
Идентификатор кодека : 55
Идентификатор кодека/Подсказка : MP3
Продолжительность : 14 м.
Вид битрейта : Постоянный
Битрейт : 96,0 Кбит/сек
Каналы : 2 канала
Частота : 48,0 КГц
Метод сжатия : С потерями
Размер потока : 9,95 Мбайт (6%)
Выравнивание : Соединение по промежуткам
Продолжительность промежутка : 24 мс. (0,60 видеокадр)
Библиотека кодирования : LAME3.99.5

Скриншот c названием фильма

Пример субтитров

8
00:01:48,120 --> 00:01:51,580
5 свиней, 6 свиней
9
00:01:58,780 --> 00:02:00,460
13 свиней
10
00:02:02,700 --> 00:02:04,060
14 свиней
11
00:02:04,970 --> 00:02:06,480
15 свиней
12
00:02:07,920 --> 00:02:10,250
- 16 свиней
- 1 свинья
13
00:02:10,440 --> 00:02:11,950
2 свиньи, 3 свиньи
14
00:02:12,220 --> 00:02:13,580
- 17 свиней
- 4 свиньи
15
00:02:13,800 --> 00:02:15,550
- 18 свиней
- 5 свиней
16
00:02:15,640 --> 00:02:17,020
- 19 свиней
- 6 свиней
17
00:02:17,180 --> 00:02:18,640
- 20 свиней
- 7 свиней
18
00:02:18,880 --> 00:02:20,490
21 свинья
19
00:02:20,590 --> 00:02:22,200
22 свиньи
20
00:02:51,960 --> 00:02:55,580
39 свиней, 40 свиней,
41 свинья
21
00:03:24,880 --> 00:03:27,960
64 свиньи, 65 свиней,
66 свиней
22
00:03:28,360 --> 00:03:31,950
1 свинья, 2 свиньи,
3 свиньи, 4 свиньи
23
00:03:32,080 --> 00:03:34,320
5 свиней, 6 свиней,
7 свиней
24
00:03:59,480 --> 00:04:02,750
27 свиней, 28 свиней,
29 свиней
25
00:04:02,880 --> 00:04:04,410
72 свиньи, 73 свиньи
26
00:04:04,570 --> 00:04:08,010
39 свиней, 40 свиней,
41 свинья,
27
00:04:08,220 --> 00:04:10,800
42 свиньи, 43 свиньи,
44 свиньи,
28
00:04:11,120 --> 00:04:14,170
45 свиней, 46 свиней,
47 свиней

Скриншоты

[teatrix.ru].t4060.torrent 
Торрент: Зарегистрирован [ 2015-10-07 12:13 ] · 697E4E6B9999E381BD6AF40DAA8A600228C98718

Скачать .torrent

Скачать

14 KB

Статус: проверено
Скачан: 0 раз
Размер: 177 MB
terms.php



Быстрый ответ

Имя:

      
Для отправки сообщений необходимо включить JavaScript
Показать сообщения:    

Текущее время: 10-Дек 04:07

Часовой пояс: UTC + 3


Вы можете начинать темы
Вы можете отвечать на сообщения
Вы не можете редактировать свои сообщения
Вы не можете удалять свои сообщения
Вы не можете голосовать в опросах
Вы не можете прикреплять файлы к сообщениям
Вы можете скачивать файлы