Булочница из Монсо / La Boulangère de Monceau / The Bakery Girl of Monceau (Эрик Ромер / Eric Rohmer) [1963 г., Франция, драма, BDRip 720p] VO + Original Fre + Sub (Rus, Eng)


Статистика раздачи [Обновить пиров]
Размер:  1.2 GB   |    Зарегистрирован:  1 год 2 месяца   |    Скачан:  0 раз

Полного источника не было: Никогда

 
   
 
 
 

[Цитировать]

Булочница из Монсо / La Boulangère de Monceau / The Bakery Girl of Monceau- Год выпуска: 1963
Страна: Франция
Жанр: драма
Продолжительность: 00:23:03
Перевод: Одноголосый закадровый
Оригинальная аудиодорожка: Французская
Cубтитры: Русские (leburs & клуб APTXAYC), английские-Режиссер: Эрик Ромер / Eric Rohmer
В ролях: Барбет Шредер, Клодин Собрье, Мишель Жирардон-Описание:
Студент юрфака каждый день обедает на небольшой улочке Парижа с другом. И каждый день встречает Сильви, красивую и холодную девушку, по-видимому, живущую неподалеку. Молодые люди исподтишка смотрят друг на друга, но у каждого свои принципы, в которые не входит уличное знакомство, месяц май распаляет чувства молодого человека и он непрочь сделать исключение из правил, да и Сильви, кажется, тоже. И вот когда студенту, наконец, посчастливилось заговорить с Сильви, она неожиданно исчезает и студент проводит свои обеденные полчаса в блуждании по улицам с мыслью встретить Сильви, и однажды забредает от голода в булочную...- | | Сэмпл-Качество: BDRip 720p (mfcorrea)
Контейнер: MKV
Видео: 988x720 (1.37:1), 24 fps, 6500 kbps
Аудио 1: Русский AC3 2.0, 48 kHz, 192 kbps — VO
Аудио 2: Французский DTS 1.0, 48 kHz, 768 kbps, 16-bit
Формат субтитров: softsub (SRT)

Скриншоты


MI

General
Unique ID : 202787863031432199058377369815861617672 (0x988F85932E538FE1B969ECC8A26AE408)
Complete name : La.Boulangere.de.Monceau.1963.720p.BluRay.AVC-mfcorrea.mkv
Format : Matroska
Format version : Version 2
File size : 1.20 GiB
Duration : 23mn 3s
Overall bit rate : 7 455 Kbps
Movie name : La boulangère de Monceau / Булочница из Монсо (1963)
Encoded date : UTC 2014-03-25 18:41:32
Writing application : mkvmerge v6.1.0 ('Old Devil') built on Mar 2 2013 14:32:37
Writing library : libebml v1.3.0 + libmatroska v1.4.0
Attachment : Yes
Video
ID : 1
Format : AVC
Format/Info : Advanced Video Codec
Format profile : High@L4.0
Format settings, CABAC : Yes
Format settings, ReFrames : 6 frames
Codec ID : V_MPEG4/ISO/AVC
Duration : 23mn 3s
Bit rate : 6 500 Kbps
Width : 988 pixels
Height : 720 pixels
Display aspect ratio : 1.372
Frame rate mode : Constant
Frame rate : 24.000 fps
Color space : YUV
Chroma subsampling : 4:2:0
Bit depth : 8 bits
Scan type : Progressive
Bits/(Pixel*Frame) : 0.381
Stream size : 1.02 GiB (85%)
Title : La.Boulangere.de.Monceau.1963.720p.BluRay.AVC-mfcorrea
Writing library : x264 core 130 r2273 b3065e6
Encoding settings : cabac=1 / ref=6 / deblock=1:-3:-3 / analyse=0x3:0x133 / me=umh / subme=9 / psy=1 / psy_rd=1.00:0.15 / mixed_ref=1 / me_range=24 / chroma_me=1 / trellis=2 / 8x8dct=1 / cqm=0 / deadzone=21,11 / fast_pskip=1 / chroma_qp_offset=-3 / threads=18 / lookahead_threads=2 / sliced_threads=0 / nr=0 / decimate=1 / interlaced=0 / bluray_compat=0 / constrained_intra=0 / bframes=5 / b_pyramid=2 / b_adapt=2 / b_bias=0 / direct=3 / weightb=1 / open_gop=0 / weightp=2 / keyint=240 / keyint_min=24 / scenecut=40 / intra_refresh=0 / rc_lookahead=50 / rc=2pass / mbtree=1 / bitrate=6500 / ratetol=1.0 / qcomp=0.60 / qpmin=0 / qpmax=69 / qpstep=4 / cplxblur=20.0 / qblur=0.5 / vbv_maxrate=25000 / vbv_bufsize=31250 / nal_hrd=none / ip_ratio=1.40 / aq=1:1.00
Language : French
Default : Yes
Forced : No
Color primaries : BT.709
Transfer characteristics : BT.709
Matrix coefficients : BT.709
Audio #1
ID : 2
Format : AC-3
Format/Info : Audio Coding 3
Mode extension : CM (complete main)
Format settings, Endianness : Big
Codec ID : A_AC3
Duration : 23mn 3s
Bit rate mode : Constant
Bit rate : 192 Kbps
Channel(s) : 2 channels
Channel positions : Front: L R
Sampling rate : 48.0 KHz
Bit depth : 16 bits
Compression mode : Lossy
Stream size : 31.7 MiB (3%)
Title : VO
Language : Russian
Default : Yes
Forced : No
Audio #2
ID : 3
Format : DTS
Format/Info : Digital Theater Systems
Mode : 16
Format settings, Endianness : Big
Codec ID : A_DTS
Duration : 23mn 3s
Bit rate mode : Constant
Bit rate : 768 Kbps
Channel(s) : 1 channel
Channel positions : Front: C
Sampling rate : 48.0 KHz
Bit depth : 16 bits
Compression mode : Lossy
Stream size : 127 MiB (10%)
Title : Original
Language : French
Default : No
Forced : No
Text #1
ID : 4
Format : UTF-8
Codec ID : S_TEXT/UTF8
Codec ID/Info : UTF-8 Plain Text
Title : leburs
Language : Russian
Default : No
Forced : No
Text #2
ID : 5
Format : UTF-8
Codec ID : S_TEXT/UTF8
Codec ID/Info : UTF-8 Plain Text
Language : English
Default : No
Forced : No
[teatrix.ru].t4061.torrent 
Торрент: Зарегистрирован [ 2015-10-07 12:13 ] · FD7A45D36C15C081F433F925E2A04A5BDC5AB642

Скачать .torrent

Скачать

25 KB

Статус: проверено
Скачан: 0 раз
Размер: 1.2 GB
terms.php



Быстрый ответ

Имя:

      
Для отправки сообщений необходимо включить JavaScript
Показать сообщения:    

Текущее время: 09-Дек 16:30

Часовой пояс: UTC + 3


Вы можете начинать темы
Вы можете отвечать на сообщения
Вы не можете редактировать свои сообщения
Вы не можете удалять свои сообщения
Вы не можете голосовать в опросах
Вы не можете прикреплять файлы к сообщениям
Вы можете скачивать файлы