Гелий / Helium (Андерс Вальтер / Anders Walter) [2014, Дания, Драма, Короткометражный, HDRip] VO (Яковлев)


Статистика раздачи [Обновить пиров]
Размер:  361 MB   |    Зарегистрирован:  1 год 1 месяц   |    Скачан:  0 раз
Сидов:  9  [  0 KB/s  ]   Подробная статистика пиров
 
   
 
 

[Цитировать]

Гелий / Helium
Страна: Дания
Жанр: Драма, Короткометражный
Год выпуска: 2014
Продолжительность: 00:21:54
Перевод: Одноголосый закадровый Алексей Яковлев
Cубтитры: нет
Оригинальная аудиодорожка: нет
Режиссер: Андерс Вальтер / Anders Walter
В ролях: Каспер Крумп, Марьяна Янкович, Пелле Фальк Крусбек
Описание: Маленький мальчик Альфред смертельно болен, но благодаря историям о волшебном мире под названием «Гелий», которые ему рассказывает уборщик больницы — Энцо, мальчику снова удается почувствовать радость и счастье в своей жизни…
Доп. информация: "Оскар" 2014 года за лучший короткометражный фильм
Сэмпл: http://yadi.sk/d/FdrqXTZEK6gwG
Тип релиза: HDRip
Контейнер: MKV
Видео: Кодек H264 MPEG4 AVC, 1941 Kbps, 1280х544, 16:9, 25 FPS
Аудио: Русский одноголосый, MP3, 44100Hz, 320 Kbps, 2 channels

MediaInfo

General
Unique ID : 212336031957579493924873524664350559587 (0x9FBE6EA618F5DDA98C4F5F6BEB384D63)
Complete name : J:\Alex\Torrents\Helium\2014 Helium.mkv
Format : Matroska
Format version : Version 2
File size : 361 MiB
Duration : 21mn 54s
Overall bit rate : 2 306 Kbps
Encoded date : UTC 2014-03-07 06:42:02
Writing application : mkvmerge v3.0.0 ('Hang up your Hang-Ups') built on Dec 12 2009 15:20:35
Writing library : libebml v0.7.9 + libmatroska v0.8.1
Video
ID : 1
Format : AVC
Format/Info : Advanced Video Codec
Format profile : Main@L5.1
Format settings, CABAC : Yes
Format settings, ReFrames : 2 frames
Codec ID : V_MPEG4/ISO/AVC
Duration : 21mn 54s
Bit rate : 1 941 Kbps
Width : 1 280 pixels
Height : 544 pixels
Display aspect ratio : 2.35:1
Frame rate mode : Constant
Frame rate : 25.000 fps
Color space : YUV
Chroma subsampling : 4:2:0
Bit depth : 8 bits
Scan type : Progressive
Bits/(Pixel*Frame) : 0.111
Stream size : 304 MiB (84%)
Default : Yes
Forced : No
Audio
ID : 2
Format : MPEG Audio
Format version : Version 1
Format profile : Layer 3
Codec ID : A_MPEG/L3
Codec ID/Hint : MP3
Duration : 21mn 54s
Bit rate mode : Constant
Bit rate : 320 Kbps
Channel(s) : 2 channels
Sampling rate : 44.1 KHz
Compression mode : Lossy
Stream size : 50.1 MiB (14%)
Default : Yes
Forced : No

Скриншоты



[teatrix.ru].t4064.torrent 
Торрент: Зарегистрирован [ 2015-10-07 12:13 ] · B6099391904783E5A69E264CF275714E663AC606

Скачать .torrent

Скачать

29 KB

Статус: проверено
Скачан: 0 раз
Размер: 361 MB
terms.php



Быстрый ответ

Имя:

      
Для отправки сообщений необходимо включить JavaScript
Показать сообщения:    

Текущее время: 03-Дек 01:17

Часовой пояс: UTC + 3


Вы можете начинать темы
Вы можете отвечать на сообщения
Вы не можете редактировать свои сообщения
Вы не можете удалять свои сообщения
Вы не можете голосовать в опросах
Вы не можете прикреплять файлы к сообщениям
Вы можете скачивать файлы