Бокал с красным вином / Le ballon de Rouge (Сильвен Брессолетт / Sylvain Bressollette) [2012, Франция, мелодрама, постмодернизм, короткий метр, DVB] Original (Fre) + Sub (ru hard)


Статистика раздачи [Обновить пиров]
Размер:  403 MB   |    Зарегистрирован:  1 год 2 месяца   |    Скачан:  0 раз

Полного источника не было: Никогда

 
   
 
 
 

[Цитировать]

Бокал с красным вином
Le ballon de Rouge- Страна: Франция
Жанр: мелодрама, постмодернизм, короткий метр
Год выпуска: 2012
Продолжительность: 00:19:52Перевод: Субтитры (перевод Г. Мирзоевой, Éclair Group)
Cубтитры: русские
Оригинальная аудиодорожка: французский
Режиссер: Сильвен Брессолетт / Sylvain Bressollette
В ролях: Лу де Лааж / Lou de Laâge (Elle), Тома Дрелон / Thomas Drelon (Lui), Патрик Пуавей / Patrick Poivey (Le patron du bar), Бастьен Теллье / Bastien Thelliez (Armand)
Описание: Сильвен Брессолетт, работавший ассистентом режиссера на фильмах "Амели", "Код да Винчи", "Париж, я люблю тебя", "Дьявол носит Прада", в своей дебютной короткометражке использует богатый накопленный опыт и создает необычную историю любви.
1963 год. В небольшом парижском бистро семейная пара обедает с боссом мужа. Сообщения об убийстве президента Кеннеди отвлекает обоих мужчин к телевизору, стоящему на барной стойке. И в это время молодой человек, сидящий спиной к оставшейся наедине женщине, предлагает ей соединить свои жизни и, воспользовавшись всеобщей суматохой, бежать вместе…
Доп. информация: TV5MONDE
Награды: 2 награды City Court Festival 2012 (Специальный приз жюри, приз Зрительских симпатий).
http://www.imdb.com/title/tt3176802/
Сэмпл: http://www.sendspace.com/file/3zjo1p
Качество видео: DVB-S
Формат видео: MPEG-PS (См. при проблемах с просмотром видео)
Видео: MPEG Video 2, 720x576@1024x576 (16:9), 25 fps, ~2579 kbps avg, 0.249 bit/pixel
Аудио: Французский (48 kHz, MPEG Audio 2, 2 ch, ~192.00 kbps avg)
Формат субтитров: hardsub (неотключаемые)

MediaInfo

Полное имя : H:\My Torrents\[apreder]MINI_MOVIE_008\[apreder]MM_Le_ballon_de_Rouge(2012)DVB.mpgФормат : MPEG-PSРазмер файла : 403 МбайтПродолжительность : 19 м.Режим общего битрейта : ПеременныйОбщий поток : 2828 Кбит/сек
ВидеоИдентификатор : 224 (0xE0)Формат : MPEG VideoВерсия формата : Version 2Профиль формата : Main@MainПараметр BVOP формата : ДаПараметр матрицы формата : ВыборочнаяПараметр GOP формата : M=3, N=24Продолжительность : 19 м.Вид битрейта : ПеременныйБитрейт : 2579 Кбит/секШирина : 720 пикселейВысота : 576 пикселейСоотношение сторон : 16:9Частота кадров : 25,000 кадров/секСтандарт вещания : PALЦветовое пространство : YUVСубдискретизация насыщенности : 4:2:0Битовая глубина : 8 битТип развёртки : ПрогрессивнаяПорядок развёртки : Верхнее поле первоеМетод сжатия : С потерямиБит/(Пиксели*Кадры) : 0.249Временной код первого кадра : 00:00:00:00Оригинал временного кода : Group of pictures headerРазмер потока : 367 Мбайт (91%)
АудиоИдентификатор : 192 (0xC0)Формат : MPEG AudioВерсия формата : Version 1Профиль формата : Layer 2Продолжительность : 19 м.Вид битрейта : ПостоянныйБитрейт : 192 Кбит/секКаналы : 2 каналаЧастота : 48,0 КГцМетод сжатия : С потерямиРазмер потока : 27,3 Мбайт (7%)

Скриншот c названием фильма

Скриншоты

Резервные скриншоты

-1'187/1'168√[-4]
[teatrix.ru].t4065.torrent 
Торрент: Зарегистрирован [ 2015-10-07 12:13 ] · 2950F482609CA4A70E2CB5B0D5CAF19AD7C6DCDF

Скачать .torrent

Скачать

16 KB

Статус: проверено
Скачан: 0 раз
Размер: 403 MB
terms.php



Быстрый ответ

Имя:

      
Для отправки сообщений необходимо включить JavaScript
Показать сообщения:    

Текущее время: 10-Дек 04:11

Часовой пояс: UTC + 3


Вы можете начинать темы
Вы можете отвечать на сообщения
Вы не можете редактировать свои сообщения
Вы не можете удалять свои сообщения
Вы не можете голосовать в опросах
Вы не можете прикреплять файлы к сообщениям
Вы можете скачивать файлы