Два плюс два / Курица / Супермен, Человек-паук или Бэтмен / Two & Two / Cluck / Superman, Spiderman or Batman (Бабак Анвари / Babak Anvari, Майкл Лэвэлл / Michael Lavelle, Тудор Жюржию / Tudor Giurgiu) [2011, Великобритания, Ирландия, Румыния]


Статистика раздачи [Обновить пиров]
Размер:  421 MB   |    Зарегистрирован:  1 год 2 месяца   |    Скачан:  0 раз

Полного источника не было: Никогда

 
   
 
 
 

[Цитировать]

Два плюс два / Курица / Супермен, Человек-паук или Бэтмен / Two & Two / Cluck / Superman, Spiderman or Batman
Страна: Великобритания, Ирландия, Румыния
Жанр: Драма
Год выпуска: 2011
Продолжительность: 00:40:59
Перевод: Одноголосый закадровый
Cубтитры: Русские неотключаемые
Оригинальная аудиодорожка: английский, румынский
Режиссер: Бабак Анвари / Babak Anvari, Майкл Лэвэлл / Michael Lavelle, Тудор Жюржию / Tudor Giurgiu
В ролях: Рави Карими / Ravi Karimi. Поуаян Лотфай / Pouyan Lotfi, Амир Паша Джафарзаде / Amir Pasha Jafarzaden - в фильме "Два плюс два"; Адам Керолан / Adam Carolan, Скотт Грэхэм / Scott Graham, Камерон Хоган / Cameron Hogan - в фильме "Курица"; Аарон Сербан / Aaron Serban - в фильме "Супермен, Человек-паук или Бэтмен"
Описание: С 28 сентября по 7 октября 2012 года 150000 киноманов из 300 городов мира объединились для одной цели - проголосовать за лучший фильм Манхэттенского фестиваля короткометражного кино 2012 (Нью-Йорк, США). В битве за зрительское признание участвовали 10 режиссеров из разных стран. Здесь представлены три работы:
Два плюс два / Two & Two (2011) Великобритания
На уроке математики ученики узнают, что два плюс два равняется пяти. Решить уравнение по-другому — преступление...
Курица / Cluck (2011) Ирландия
В приюте пух да перья летят, когда в нем появляется новый мальчик. Конечно, ведь он грозит разрушить установленный порядок.
Супермен, Человек-паук или Бэтмен / Superman, Spiderman or Batman (2011) Румыния
Вдохновленный любимыми героями комиксов, мальчик решает спасти свою маму.
Сэмпл: http://multi-up.com/950317
Качество видео: DVDRip
Формат видео: AVI
Видео: 720x408 (1.76:1), 25 fps, XviD build 50 ~1037 kbps avg, 0.14 bit/pixel
Аудио 1: 48 kHz, AC3 Dolby Digital, 2/0 (L,R) ch, ~192.00 kbps avg(Русский)
Аудио 2: 48 kHz, AC3 Dolby Digital, 2/0 (L,R) ch, ~192.00 kbps avg(Английский,Румынский)
Формат субтитров: hardsub (неотключаемые)

MediaInfo

Общее
Полное имя : F:\С моей озвучкой\Короткометражки\The Manhattan Short Film Festival.avi
Формат : AVI
Формат/Информация : Audio Video Interleave
Размер файла : 421 Мбайт
Продолжительность : 40 м.
Общий поток : 1437 Кбит/сек
Программа кодирования : VirtualDubModRus 1.5.10.2 (build 2542/release)
Библиотека кодирования : VirtualDubMod build 2542/release
Видео
Идентификатор : 0
Формат : MPEG-4 Visual
Профиль формата : Advanced Simple@L5
Параметр BVOP формата : 2
Параметр QPel формата : Нет
Параметр GMC формата : Без точки перехода
Параметр матрицы формата : Default (H.263)
Идентификатор кодека : XVID
Идентификатор кодека/Подсказка : XviD
Продолжительность : 40 м.
Битрейт : 1039 Кбит/сек
Ширина : 720 пикселей
Высота : 408 пикселей
Соотношение сторон : 16:9
Частота кадров : 25,000 кадров/сек
Цветовое пространство : YUV
Субдискретизация насыщенности : 4:2:0
Битовая глубина : 8 бит
Тип развёртки : Прогрессивная
Метод сжатия : С потерями
Бит/(Пиксели*Кадры) : 0.141
Размер потока : 304 Мбайт (72%)
Библиотека кодирования : XviD 1.2.1 (UTC 2008-12-04)
Аудио #1
Идентификатор : 1
Формат : AC-3
Формат/Информация : Audio Coding 3
Расширение режима : CM (complete main)
Идентификатор кодека : 2000
Продолжительность : 40 м.
Вид битрейта : Постоянный
Битрейт : 192 Кбит/сек
Каналы : 2 канала
Расположение каналов : Front: L R
Частота : 48,0 КГц
Битовая глубина : 16 бит
Метод сжатия : С потерями
Размер потока : 56,3 Мбайт (13%)
Выравнивание : Разделение по промежуткам
Продолжительность промежутка : 40 мс. (1,00 видеокадр)
Время предзагрузки промежутка : 500 мс.
Аудио #2
Идентификатор : 2
Формат : AC-3
Формат/Информация : Audio Coding 3
Расширение режима : CM (complete main)
Идентификатор кодека : 2000
Продолжительность : 40 м.
Вид битрейта : Постоянный
Битрейт : 192 Кбит/сек
Каналы : 2 канала
Расположение каналов : Front: L R
Частота : 48,0 КГц
Битовая глубина : 16 бит
Метод сжатия : С потерями
Задержка видео : 24 мс.
Размер потока : 56,3 Мбайт (13%)
Выравнивание : Разделение по промежуткам
Продолжительность промежутка : 40 мс. (1,00 видеокадр)
Время предзагрузки промежутка : 500 мс.

Скриншоты

[teatrix.ru].t4066.torrent 
Торрент: Зарегистрирован [ 2015-10-07 12:13 ] · 76E5D9BDE610A5E2880CD38A7D7DF53E6475A169

Скачать .torrent

Скачать

17 KB

Статус: проверено
Скачан: 0 раз
Размер: 421 MB
terms.php



Быстрый ответ

Имя:

      
Для отправки сообщений необходимо включить JavaScript
Показать сообщения:    

Текущее время: 10-Дек 04:12

Часовой пояс: UTC + 3


Вы можете начинать темы
Вы можете отвечать на сообщения
Вы не можете редактировать свои сообщения
Вы не можете удалять свои сообщения
Вы не можете голосовать в опросах
Вы не можете прикреплять файлы к сообщениям
Вы можете скачивать файлы