Босфор / Bosporus (Мартин Вернер / Martin Werner) [2011, Дания, Турция, короткий метр, драма, WEB-DLRip] Sub Rus


Статистика раздачи [Обновить пиров]
Размер:  351 MB   |    Зарегистрирован:  1 год 1 месяц   |    Скачан:  0 раз

Полного источника не было: Никогда

 
   
 
 
 

[Цитировать]

Босфор / Bosporus
-Страна: Дания, Турция
Жанр: короткий метр, драма
Год выпуска: 2011
Продолжительность: 00:26:16-Перевод: Субтитры (by sonnyb)
Cубтитры: русские внешние, датские вшитые
Оригинальная аудиодорожка: турецкий-Режиссер: Мартин Вернер / Martin Werner
В ролях: Тургай Танюлькю (Turgay Tanülkü), Зухаль Генчер (Zuhal Gencer), Энгин Бенли (Engin Benli)-Описание: Мурат потерял дочь и жену много лет назад в результате несчастного случая. Не имея возможности вернуться к нормальной жизни, он живет своей повседневной рыбалкой на мосту. Но случайная встреча с соседкой показывает ему, что нельзя всю жизнь провести скорбя.-Качество видео: WEB-DLRip
Формат видео: AVI
Видео: 704x352 (2.00:1), 25 fps, XviD build 50 ~1660 kbps avg, 0.27 bit/pixel
Аудио: 44.100 kHz, MPEG Layer 3, 2 ch, ~192.00 kbps avg

Благодарности

Спасибо Satan wants me за редакцию сабов, Mannenr за постер и exvet за рип!

MediaInfo

Формат : AVI
Формат/Информация : Audio Video Interleave
Размер файла : 351 Мбайт
Продолжительность : 26 м.
Общий поток : 1865 Кбит/сек
Программа кодирования : VirtualDubMod 1.5.10.3 | www.virtualdub-fr.org || (build 2550/release)
Библиотека кодирования : VirtualDubMod build 2550/release
Видео
Идентификатор : 0
Формат : MPEG-4 Visual
Профиль формата : Advanced Simple@L5
Параметр BVOP формата : 1
Параметр QPel формата : Нет
Параметр GMC формата : Без точки перехода
Параметр матрицы формата : Default (MPEG)
Идентификатор кодека : XVID
Идентификатор кодека/Подсказка : XviD
Продолжительность : 26 м.
Битрейт : 1661 Кбит/сек
Ширина : 704 пикс.
Высота : 352 пикс.
Соотношение сторон : 2,000
Частота кадров : 25,000 кадр/сек
Цветовое пространство : YUV
Подвыборка цветности : 4:2:0
Битовая глубина : 8 бит
Тип развёртки : Прогрессивная
Метод сжатия : С потерями
Бит/(Пиксели*Кадры) : 0.268
Размер потока : 312 Мбайт (89%)
Библиотека кодирования : XviD 1.2.1 (UTC 2008-12-04)
Аудио
Идентификатор : 1
Формат : MPEG Audio
Версия формата : Version 1
Профиль формата : Layer 3
Идентификатор кодека : 55
Идентификатор кодека/Подсказка : MP3
Продолжительность : 26 м.
Вид битрейта : Переменный
Битрейт : 192 Кбит/сек
Каналы : 2 канала
Частота : 44,1 КГц
Метод сжатия : С потерями
Размер потока : 36,1 Мбайт (10%)
Выравнивание : Соединение по промежуткам
Продолжительность промежутка : 26 мс. (0,65 видеокадр)
Время предзагрузки промежутка : 500 ms
Библиотека кодирования : LAME3.99r
Настройки программы : -m s -V 4 -q 0 -lowpass 18.6 -b 192
Пример субтитров">

Скриншоты Пример субтитров


1
00:00:42,374 --> 00:00:47,374
~ Босфор ~
2
00:00:53,375 --> 00:00:54,583
Эй, господин...
3
00:01:00,542 --> 00:01:02,291
Можно мне подержать?
4
00:01:10,125 --> 00:01:13,834
А вы ничего не поймали.
5
00:01:17,959 --> 00:01:20,041
Что вы используете, как наживку?
6
00:01:25,417 --> 00:01:27,000
Я спросил у вас, что вы вешаете на крючок?
7
00:01:28,917 --> 00:01:31,458
Я использую жирных и уродливых детей,
8
00:01:31,792 --> 00:01:34,375
с кем никто не хочет играть.
9
00:01:49,417 --> 00:01:50,917
Мурат!
10
00:01:51,709 --> 00:01:53,166
Мурат.
11
00:01:54,542 --> 00:01:58,250
А ты хорошо с детьми справляешься, да?
12
00:04:04,375 --> 00:04:05,875
Чёртовы рыбы.
13
00:04:14,417 --> 00:04:17,000
Зачем ты ездишь на то кладбище?
14
00:04:19,125 --> 00:04:22,000
Ты делаешь это каждый день.
15
00:04:23,917 --> 00:04:25,792
Чем ты там занимаешься?
16
00:04:28,250 --> 00:04:30,792
У тебя стояк от этого?
17
00:04:35,250 --> 00:04:37,917
Ты бы не ездил туда, не будь тебе
с этого какой-то выгоды, так же?
18
00:04:39,291 --> 00:04:42,333
Вы все ищите выгоду.
Все вы!
19
00:04:44,375 --> 00:04:47,875
Вы ничего не сделаете, если вам с этого
ничего не будет, так ведь?
20
00:04:48,208 --> 00:04:50,333
И рыба хочет себе выгоды.
21
00:04:53,417 --> 00:04:55,041
Вам всем крышка!
22
00:04:55,291 --> 00:04:56,959
И рыбе тоже.
23
00:05:02,709 --> 00:05:03,792
Я ухожу...
24
00:05:31,709 --> 00:05:34,458
Что-нибудь ещё?
25
00:05:35,458 --> 00:05:37,667
А ты видишь что-нибудь ещё?
[teatrix.ru].t4069.torrent 
Торрент: Зарегистрирован [ 2015-10-07 12:13 ] · 07E58209E99EC6F81D972D5BD7502ACD455E4CA3

Скачать .torrent

Скачать

14 KB

Статус: проверено
Скачан: 0 раз
Размер: 351 MB
terms.php



Быстрый ответ

Имя:

      
Для отправки сообщений необходимо включить JavaScript
Показать сообщения:    

Текущее время: 03-Дек 18:42

Часовой пояс: UTC + 3


Вы можете начинать темы
Вы можете отвечать на сообщения
Вы не можете редактировать свои сообщения
Вы не можете удалять свои сообщения
Вы не можете голосовать в опросах
Вы не можете прикреплять файлы к сообщениям
Вы можете скачивать файлы