Постель из роз / En dans på roser (Кари Видё / Kari Vidø) [2007, Дания, драма, короткий метр, WEBRip] Rus Sub


Статистика раздачи [Обновить пиров]
Размер:  322 MB   |    Зарегистрирован:  1 год 1 месяц   |    Скачан:  0 раз

Полного источника не было: Никогда

 
   
 
 
 

[Цитировать]

ПОСТЕЛЬ ИЗ РОЗ-En dans på roser- Год выпуска: 2007
Страна: Дания
Студии: Tju-Bang Film
Жанр: драма, короткий метр
Продолжительность: 00:28:08-Перевод: (sombre soul)
Озвучение: нет
Субтитры: русские
Оригинальная дорожка: датская-Режиссёр: Кари Видё / Kari Vidø
Сценарий: Кари Видё
Композитор: Микаэль Флерон, Бьёрн Видё-В ролях: Якоб Седергрен (Ханс), Луисе Миритц (Ранди), Хелле Хертц (мать)-История о Хансе, который вместе с отцом выращивает розы. Как единственный наследник он видит свое будущее в разведении разных сортов роз. Однажды в пути на выставку они терпят аварию. Отец погибает, а Ханс попадает в больницу с сотрясением мозга и сломанной рукой. Там он знакомится с медсестрой Ранди, которая открывает ему глаза на жизнь. Тем временем, оранжерея приходит в запустение, и мать всеми силами пытается вернуть Ханса домой. Но больница для него стала раем.- -Качество: WEBRip
Формат: AVI
Видео-кодек: XviD
Аудио-кодек: MP3
Видео: XviD, 720x400, 25 fps, 1397 kbps, 0.194 bit/pixel
Аудио: MP3, 48 kHz, 2 ch, 192 kbps
Субтитры: русские (sofsub)

MediaInfo

General
Complete name                  : D:\Translations\Постель из роз (En dans på roser, Denmark) (2007)\Постель из роз (En dans på roser, Denmark) (2007).avi
Format                         : AVI
Format/Info                    : Audio Video Interleave
File size                      : 322 MiB
Duration                       : 28mn 8s
Overall bit rate               : 1 599 Kbps
Writing application            : VirtualDubMod 1.5.10.3 | www.virtualdub-fr.org || (build 2550/release)
Writing library                : VirtualDubMod build 2550/release
Video
ID                             : 0
Format                         : MPEG-4 Visual
Format profile                 : Advanced Simple@L5
Format settings, BVOP          : Yes
Format settings, QPel          : No
Format settings, GMC           : No warppoints
Format settings, Matrix        : Default (H.263)
Codec ID                       : XVID
Codec ID/Hint                  : XviD
Duration                       : 28mn 8s
Bit rate                       : 1 397 Kbps
Width                          : 720 pixels
Height                         : 400 pixels
Display aspect ratio           : 16:9
Frame rate                     : 25.000 fps
Color space                    : YUV
Chroma subsampling             : 4:2:0
Bit depth                      : 8 bits
Scan type                      : Progressive
Compression mode               : Lossy
Bits/(Pixel*Frame)             : 0.194
Stream size                    : 281 MiB (87%)
Writing library                : XviD 1.2.1 (UTC 2008-12-04)
Audio
ID                             : 1
Format                         : MPEG Audio
Format version                 : Version 1
Format profile                 : Layer 3
Codec ID                       : 55
Codec ID/Hint                  : MP3
Duration                       : 28mn 8s
Bit rate mode                  : Constant
Bit rate                       : 192 Kbps
Channel(s)                     : 2 channels
Sampling rate                  : 44.1 KHz
Compression mode               : Lossy
Stream size                    : 38.6 MiB (12%)
Alignment                      : Split accross interleaves
Interleave, duration           : 40 ms (1.00 video frame)
Interleave, preload duration   : 500 ms
Writing library                : LAME3.99r
Encoding settings              : -m s -V 4 -q 2 -lowpass 18.6 -b 192

Отрывок субтитров

22
00:03:21,458 --> 00:03:24,917
— Хватит спорить...
— Прекрати!
23
00:03:43,750 --> 00:03:48,250
Который час? Я не могу
здесь вот так лежать.
24
00:03:49,959 --> 00:03:52,458
Тебе нужно расслабиться,
25
00:03:52,583 --> 00:03:58,500
иначе будешь страдать от головных
болей всю жизнь. Лежи спокойно.
26
00:03:58,625 --> 00:04:00,417
Вот так.
27
00:04:08,625 --> 00:04:13,542
Мне нужно домой,
иначе все розы высохнут.
28
00:04:13,667 --> 00:04:17,125
Ты никуда не пойдешь.
Принести турецкий сэндвич?
29
00:04:18,166 --> 00:04:21,083
— Тебя вырвало?
— Да.
30
00:04:22,083 --> 00:04:26,166
— Принести йогурт?
— Нет, спасибо, мне надо домой.
31
00:04:26,291 --> 00:04:28,959
Их нужно срезать,
связывать, запаковывать...
32
00:04:29,041 --> 00:04:31,208
Сорт высший премиум...
33
00:04:32,333 --> 00:04:34,875
500, «Дольче Вита».
34
00:04:34,999 --> 00:04:39,083
Ты будешь дома, не переживай.
Сначала только надо выздороветь.

Скриншот с названием

[teatrix.ru].t4070.torrent 
Торрент: Зарегистрирован [ 2015-10-07 12:13 ] · 6C0B0FB202B125B9F38CE0237172EE0C603B3036

Скачать .torrent

Скачать

13 KB

Статус: проверено
Скачан: 0 раз
Размер: 322 MB
terms.php



Быстрый ответ

Имя:

      
Для отправки сообщений необходимо включить JavaScript
Показать сообщения:    

Текущее время: 04-Дек 17:20

Часовой пояс: UTC + 3


Вы можете начинать темы
Вы можете отвечать на сообщения
Вы не можете редактировать свои сообщения
Вы не можете удалять свои сообщения
Вы не можете голосовать в опросах
Вы не можете прикреплять файлы к сообщениям
Вы можете скачивать файлы