Прах / Dust (Вим Вандекейбус / Wim Vandekeybus) [1996, Бельгия, перформанс, притча, короткий метр, DVDRip]


 

[Цитировать]

Прах
Dust- Страна: Бельгия
Жанр: перформанс, притча, короткий метр
Год выпуска: 1996
Продолжительность: 00:03:50
Перевод: Не требуется
Cубтитры: нет
Оригинальная аудиодорожка: нет диалогов
Режиссер: Вим Вандекейбус / Wim VandekeybusВ ролях: Инаки Азпиллага / Iñaki Azpillaga, Франсуа Брис / François Brice, Кармело Фернандес / Carmelo Fernandez
Описание: Вим Вандекейбус - бельгийский режиссёр. Родился в 1965 году. В середине 1980-х, после двух лет работы с Яном Фабром, писателем и художником, он создает экспериментальную творческую структуру ULTIMA VEZ ("Последний раз"). Именно так - экспериментальная творческая структура. Это не балетная труппа, это больше чем просто театр. Он снимает фильмы, ставит танцы, рассказывает притчи c экрана и со сцены, изучает возможности выражения, взаимодействия людей между собой и людей с тем, что их окружает.
Перформанс "Прах" является частью сценической постановки "Bereft of a Blissful Union". Трое мужчин раздеваются донага, чтобы помыться. Они трут себя с остервенением, будто желая содрать с себя кожу и освободить мятущиеся души от безумия…
Доп. информация: Фильм выходил в составе 3-х-дискового DVD-сборника Wim Vandekeybus: Dance and short fiction films.
http://www.imdb.com/title/tt2010984/
Сэмпл: http://multi-up.com/939331
Качество видео: DVDRip
Формат видео: AVI
Видео: XviD, 624x352 (1.77:1), 25 fps, ATI YVU12 4:2:0 Planar ~1837 kbps avg, 0.335 bit/pixel
Аудио: 48 kHz, MPEG Layer 3, 2 ch, ~192.00 kbps avg

MediaInfo

Полное имя : H:\My Torrents\[apreder]MINI_MOVIE_008\[apreder]MM_Dust(1996)DVDRip.aviФормат : AVIФормат/Информация : Audio Video InterleaveРазмер файла : 55,9 МбайтПродолжительность : 3 м. 50 с.Общий поток : 2039 Кбит/сек
ВидеоИдентификатор : 0Формат : MPEG-4 VisualПрофиль формата : Advanced Simple@L5Параметр BVOP формата : НетПараметр QPel формата : НетПараметр GMC формата : Без точки переходаПараметр матрицы формата : Default (H.263)Идентификатор кодека : XVIDИдентификатор кодека/Подсказка : XviDПродолжительность : 3 м. 50 с.Битрейт : 1837 Кбит/секШирина : 624 пикселяВысота : 352 пикселяСоотношение сторон : 16:9Частота кадров : 25,000 кадров/секЦветовое пространство : YUVСубдискретизация насыщенности : 4:2:0Битовая глубина : 8 битТип развёртки : ПрогрессивнаяМетод сжатия : С потерямиБит/(Пиксели*Кадры) : 0.335Размер потока : 50,4 Мбайт (90%)Библиотека кодирования : XviD 64
АудиоИдентификатор : 1Формат : MPEG AudioВерсия формата : Version 1Профиль формата : Layer 3Режим : Joint stereoИдентификатор кодека : 55Идентификатор кодека/Подсказка : MP3Продолжительность : 3 м. 49 с.Вид битрейта : ПостоянныйБитрейт : 192 Кбит/секКаналы : 2 каналаЧастота : 48,0 КГцМетод сжатия : С потерямиРазмер потока : 5,26 Мбайт (9%)Выравнивание : Разделение по промежуткамПродолжительность промежутка : 40 мс. (1,00 видеокадр)Время предзагрузки промежутка : 500 мс.Библиотека кодирования : LAME3.98.4

Скриншот c названием фильма

Скриншоты

Резервные скриншоты

-1'137/1'118√[-4]



Показать сообщения:    

Текущее время: 08-Дек 01:20

Часовой пояс: UTC + 3


Вы не можете начинать темы
Вы не можете отвечать на сообщения
Вы не можете редактировать свои сообщения
Вы не можете удалять свои сообщения
Вы не можете голосовать в опросах
Вы не можете прикреплять файлы к сообщениям
Вы не можете скачивать файлы