Взрыв / Tick Tick Boom (Фрида Баркфорс / Frida Barkfors) [2009, Дания, драма, короткий метр, HDRip] VO (datynet)


Статистика раздачи [Обновить пиров]
Размер:  436 MB   |    Зарегистрирован:  1 год 1 месяц   |    Скачан:  0 раз

Полного источника не было: Никогда

 
   
 
 
 

[Цитировать]

ВЗРЫВ-Tick Tick Boom- Год выпуска: 2009
Страна: Дания
Студии: National Film School Of Denmark
Жанр: драма, короткий метр
Продолжительность: 00:29:30-Перевод: (sombre soul)
Озвучение: Одноголосый закадровый (datynet)
Субтитры: английские (вшитые)
Оригинальная дорожка: нет-Режиссёр: Фрида Баркфорс / Frida Barkfors
Сценарий: Фрида Баркфорс, С.С. Хольст
Композитор: Юлиан Виндинг-В ролях: Коко Ярдемоль (Дагмар), Томас Хавн (Расмус), Ларс Тисгор (Аксель), Миккель Юль Йенсен (Пелле)-Пелле влюблен в Дагмар и хочет сказать ей об этом. Расмус стал отцом и не желает, чтобы сыну делали опасную операцию. Аксель недавно развелся, но надеется восстановить брак. «Взрыв» – это история о том, что жизнь не всегда следует нашим планам.-Выпускная работа студентки Государственной школы кинематографии Дании Фриды Баркфорс.- -Качество: HDRip
Формат: AVI
Видео-кодек: XviD
Аудио-кодек: MP3
Видео: XviD, 720x408, 25 fps, 1864 kbps, 0.254 bit/pixel
Аудио: MP3, 48 kHz, 2 ch, 192 kbps

MediaInfo

General
Complete name                  : D:\Translations\Взрыв (Tick Tick Boom, Denmark) (2009).avi
Format                         : AVI
Format/Info                    : Audio Video Interleave
File size                      : 436 MiB
Duration                       : 29mn 30s
Overall bit rate               : 2 066 Kbps
Writing application            : VirtualDubMod 1.5.10.2 (build 2540/release)
Writing library                : VirtualDubMod build 2540/release
Video
ID                             : 0
Format                         : MPEG-4 Visual
Format profile                 : Advanced Simple@L5
Format settings, BVOP          : Yes
Format settings, QPel          : No
Format settings, GMC           : No warppoints
Format settings, Matrix        : Default (H.263)
Codec ID                       : XVID
Codec ID/Hint                  : XviD
Duration                       : 29mn 30s
Bit rate                       : 1 864 Kbps
Width                          : 720 pixels
Height                         : 408 pixels
Display aspect ratio           : 16:9
Frame rate                     : 25.000 fps
Color space                    : YUV
Chroma subsampling             : 4:2:0
Bit depth                      : 8 bits
Scan type                      : Progressive
Compression mode               : Lossy
Bits/(Pixel*Frame)             : 0.254
Stream size                    : 393 MiB (90%)
Writing library                : XviD 1.2.1 (UTC 2008-12-04)
Audio
ID                             : 1
Format                         : MPEG Audio
Format version                 : Version 1
Format profile                 : Layer 3
Codec ID                       : 55
Codec ID/Hint                  : MP3
Duration                       : 29mn 30s
Bit rate mode                  : Constant
Bit rate                       : 192 Kbps
Channel count                  : 2 channels
Sampling rate                  : 44.1 KHz
Compression mode               : Lossy
Stream size                    : 40.5 MiB (9%)
Alignment                      : Split accross interleaves
Interleave, duration           : 40 ms (1.00 video frame)
Interleave, preload duration   : 500 ms

Скриншот с названием

Скриншоты


[teatrix.ru].t4073.torrent 
Торрент: Зарегистрирован [ 2015-10-07 12:13 ] · 1F30A0FC12105235FC7004D0D154671E041CA4BA

Скачать .torrent

Скачать

18 KB

Статус: проверено
Скачан: 0 раз
Размер: 436 MB
terms.php



Быстрый ответ

Имя:

      
Для отправки сообщений необходимо включить JavaScript
Показать сообщения:    

Текущее время: 03-Дек 18:39

Часовой пояс: UTC + 3


Вы можете начинать темы
Вы можете отвечать на сообщения
Вы не можете редактировать свои сообщения
Вы не можете удалять свои сообщения
Вы не можете голосовать в опросах
Вы не можете прикреплять файлы к сообщениям
Вы можете скачивать файлы