Поломка / Le naufragé / Le naufrage / Stranded (Гийом Брак / Guillaume Brac) [2009, Франция, короткий метр, драма, DVDRip] + Sub Rus + Original Fre


Статистика раздачи [Обновить пиров]
Размер:  280 MB   |    Зарегистрирован:  1 год 1 месяц   |    Скачан:  0 раз

Полного источника не было: Никогда

 
   
 
 
 

[Цитировать]

Поломка / Le naufragé / Le naufrage / Stranded- Страна: Франция
Жанр: короткий метр, драма
Год выпуска: 2009
Продолжительность: 00:23:58-Перевод: субтитры
Cубтитры: русские (Hege Drag)
Оригинальная аудиодорожка: французский-Режиссер: Гийом Брак / Guillaume Brac
В ролях: Винсен Макен (Vincent Macaigne), Жюльен Люка (Julien Lucas), Аделаида Леру (Adélaïde Leroux).-Описание: Люк отправляется на велопробег, чтобы попытаться забыть о своих проблемах. После череды событий он оказывается вынужден провести ночь в небольшом городке в Пикардии. Там он встречает Сильвана, который пытается ему помочь - удачно, или нет.-Доп. информация:
  • Короткометражка является прологом к другому фильму Гийома Брака - Мир без женщин.
  • Автор рипа - Phvai @ karagarga. Благодарности!-Качество видео: DVDRip
    Формат видео: AVI
    Видео: XviD, 720x400, 16:9, 25.000 fps
    Аудио: MP3, 48.0 KHz, 128 Kbps, constant, 2 channels
    Формат субтитров: softsub (SRT)

MediaInfo

General
Complete name : L:\Le naufrage (2009)\Le naufrage.avi
Format : AVI
Format/Info : Audio Video Interleave
File size : 280 MiB
Duration : 23mn 58s
Overall bit rate : 1 634 Kbps
Video
ID : 0
Format : MPEG-4 Visual
Format profile : Simple@L3
Format settings, BVOP : No
Format settings, QPel : No
Format settings, GMC : No warppoints
Format settings, Matrix : Default (H.263)
Codec ID : XVID
Codec ID/Hint : XviD
Duration : 23mn 58s
Bit rate : 1 493 Kbps
Width : 720 pixels
Height : 400 pixels
Display aspect ratio : 16:9
Frame rate : 25.000 fps
Resolution : 8 bits
Colorimetry : 4:2:0
Scan type : Progressive
Bits/(Pixel*Frame) : 0.207
Stream size : 256 MiB (91%)
Writing library : XviD 1.1.2 (UTC 2006-11-01)
Audio
ID : 1
Format : MPEG Audio
Format version : Version 1
Format profile : Layer 3
Mode : Joint stereo
Format_Settings_ModeExtension : MS Stereo
Codec ID : 55
Codec ID/Hint : MP3
Duration : 23mn 58s
Bit rate mode : Constant
Bit rate : 128 Kbps
Channel(s) : 2 channels
Sampling rate : 48.0 KHz
Stream size : 22.0 MiB (8%)
Alignment : Split accross interleaves
Interleave, duration : 24 ms (0.60 video frame)
Writing library : LAME3.98

Скриншоты



[teatrix.ru].t4074.torrent 
Торрент: Зарегистрирован [ 2015-10-07 12:13 ] · F8599457064AD7F09275C4551A972EFF9CC018BA

Скачать .torrent

Скачать

12 KB

Статус: проверено
Скачан: 0 раз
Размер: 280 MB
terms.php



Быстрый ответ

Имя:

      
Для отправки сообщений необходимо включить JavaScript
Показать сообщения:    

Текущее время: 04-Дек 13:15

Часовой пояс: UTC + 3


Вы можете начинать темы
Вы можете отвечать на сообщения
Вы не можете редактировать свои сообщения
Вы не можете удалять свои сообщения
Вы не можете голосовать в опросах
Вы не можете прикреплять файлы к сообщениям
Вы можете скачивать файлы