Лондонская история / The London Story (Салли Поттер / Sally Potter) [1986, Великобритания, Политика, сюрреализм, арт-хаус, короткий метр, DVDRip] + Sub Rus + Original Eng


Статистика раздачи [Обновить пиров]
Размер:  214 MB   |    Зарегистрирован:  1 год 2 месяца   |    Скачан:  0 раз

Полного источника не было: Никогда

 
   
 
 
 

[Цитировать]

Лондонская история / The London Story
Страна: Великобритания
Жанр: Политика, сюрреализм, арт-хаус, короткий метр
Год выпуска: 1986
Продолжительность: 00:15:36
Перевод: Субтитры
Cубтитры: русские
Оригинальная аудиодорожка: английский
Режиссер: Салли Поттер / Sally Potter
В ролях: Джеки Лансли, Джордж Ясуми, Лол Коксхилл, Артур Финчман, Дэннис Гринвуд, Дермот Марнэхан
Описание: Одна красивая женщина, двое чудаковатых мужчин, музыка Сергея Прокофьева - и внешняя политика Соединенного Королевства летит ко всем чертям...
Ранняя работа Салли Поттер ("Орландо", "Человек, который плакал", "Золотоискательницы", "Урок танго", "Джинджер и Роза", "Ярость").
Доп. информация: Главную роль в фильме сыграла знаменитая танцовщица, хореограф, актриса и режиссер Джеки Лансли.
С Салли Поттер она также сотрудничала (как хореограф и танцовщица) в "Орландо" и "Золотоискательницах".
Роль мистера Поппера сыграл известный саксофонист-импровизатор Лол Коксхилл.
Алое платье Джеки Лансли выполнено по эскизам Санди Поувелл, художника по костюмам, трижды лауреата премии "Оскар".
В фильме звучит музыка Сергея Прокофьева из балета "Ромео и Джульетта" в исполнении Филадельфийского оркестра, дир. Рикардо Мути; и в аранжировке для органа в исполнении органиста "Ледового Центра Ли-Валлей" Дэвида Лоува.
Перевод: KotBasil, в редакции vvvladimirov-a
Качество видео: DVDRip
Формат видео: AVI
Видео: XviD build 50, 0.22 bit/pixel, 640x480 (1.33:1), 25 fps, 1719 kbps avg
Аудио: MPEG Layer 3, 48 kHz, 192.00 kbps avg, 2 ch
Формат субтитров: softsub (SRT)

Фрагмент субтитров

9
00:01:21,380 --> 00:01:22,460
Пожалуйста,
присаживайтесь.
10
00:01:27,580 --> 00:01:31,460
Ну, что ж…
Можете рассказать мне о себе?
11
00:01:33,100 --> 00:01:39,660
Я бросил школу в 15 лет и сразу же
пошел в отель открывать двери
12
00:01:39,700 --> 00:01:43,660
Я получил очень хорошие рекомендации,
и начал открывать другие двери,
13
00:01:43,660 --> 00:01:45,940
и в итоге оказался на моей
нынешней должности
14
00:01:45,960 --> 00:01:48,020
И какую должность
Вы занимаете сейчас?
15
00:01:49,000 --> 00:01:52,180
Я часто затребован для открытия дверей
перед членами кабинета министров.
16
00:01:53,300 --> 00:01:55,820
У вас есть доступ
ко всем важным дверям?
17
00:01:55,860 --> 00:01:57,220
Более или менее.
18
00:01:59,500 --> 00:02:01,860
Что вы думаете о людях, которых
вы впускаете и выпускаете?
19
00:02:03,860 --> 00:02:07,620
Я просто открываю двери…
Мне платят не за составление мнений.
20
00:02:09,640 --> 00:02:10,940
У вас есть какие-нибудь увлечения?
21
00:02:12,300 --> 00:02:13,570
Ну...
22
00:02:13,580 --> 00:02:15,340
Открытие дверей.
23
00:02:17,060 --> 00:02:23,180
Моя работа… Я работал в министерстве…
Клерком, в Уайт-холле…
24
00:02:24,660 --> 00:02:26,860
Не могу вдаваться в подробности,
всё довольно секретно.
25
00:02:26,860 --> 00:02:28,060
Почему вы ушли?
26
00:02:30,560 --> 00:02:33,540
Стремление к наивысшей эффективности…
27
00:02:33,540 --> 00:02:42,420
Мое начальство решило, что будет
лучше, если я покину свою должность.
28
00:02:42,450 --> 00:02:48,420
Я думаю, руководители отдела
посчитали, что я слишком медленно
29
00:02:48,420 --> 00:02:51,340
работаю с фото-копировальным
аппаратом,

MediaInfo

General
Complete name : D:\Sally Potter-The London Story (1986)\Sally Potter-The London Story (1986).avi
Format : AVI
Format/Info : Audio Video Interleave
File size : 214 MiB
Duration : 15mn 36s
Overall bit rate : 1 922 Kbps
Writing application : VirtualDubMod 1.5.10.2 (build 2540/release)
Writing library : VirtualDubMod build 2540/release
Video
ID : 0
Format : MPEG-4 Visual
Format profile : Advanced Simple@L5
Format settings, BVOP : Yes
Format settings, QPel : No
Format settings, GMC : No warppoints
Format settings, Matrix : Default (H.263)
Codec ID : XVID
Codec ID/Hint : XviD
Duration : 15mn 36s
Bit rate : 1 720 Kbps
Width : 640 pixels
Height : 480 pixels
Display aspect ratio : 4:3
Frame rate : 25.000 fps
Color space : YUV
Chroma subsampling : 4:2:0
Bit depth : 8 bits
Scan type : Progressive
Bits/(Pixel*Frame) : 0.224
Stream size : 192 MiB (90%)
Writing library : XviD 1.2.1 (UTC 2008-12-04)
Audio
ID : 1
Format : MPEG Audio
Format version : Version 1
Format profile : Layer 3
Mode : Joint stereo
Mode extension : MS Stereo
Codec ID : 55
Codec ID/Hint : MP3
Duration : 15mn 35s
Bit rate mode : Constant
Bit rate : 192 Kbps
Channel(s) : 2 channels
Sampling rate : 48.0 KHz
Stream size : 21.4 MiB (10%)
Alignment : Aligned on interleaves
Interleave, duration : 40 ms (1.00 video frame)
Interleave, preload duration : 504 ms
Writing library : LAME3.97

Скриншоты


[teatrix.ru].t4075.torrent 
Торрент: Зарегистрирован [ 2015-10-07 12:13 ] · 243AD363F31F59FC9F2B870C4AC683196C44BA60

Скачать .torrent

Скачать

17 KB

Статус: проверено
Скачан: 0 раз
Размер: 214 MB
terms.php



Быстрый ответ

Имя:

      
Для отправки сообщений необходимо включить JavaScript
Показать сообщения:    

Текущее время: 10-Дек 19:40

Часовой пояс: UTC + 3


Вы можете начинать темы
Вы можете отвечать на сообщения
Вы не можете редактировать свои сообщения
Вы не можете удалять свои сообщения
Вы не можете голосовать в опросах
Вы не можете прикреплять файлы к сообщениям
Вы можете скачивать файлы