Сегодня увольнения не будет (Андрей Тарковский, Александр Гордон) [1958, СССР, драма, экзистенциальная драма, короткометражный, TVRip] + Sub Fre


Статистика раздачи [Обновить пиров]
Размер:  429 MB   |    Зарегистрирован:  1 год 2 месяца   |    Скачан:  0 раз

Полного источника не было: Никогда

 
   
 
 
 

[Цитировать]

Сегодня увольнения не будет

Режиссеры: Андрей Тарковский, Александр Гордон
Сценаристы: Александр Гордон, Ирина Маховая, Андрей Тарковский
Операторы: Лев Бунин, Эрнст Яковлев
Композитор: Юрий Мацкевич
Художник: Семен Петерсон
Страна: СССР
Производство: ВГИК, Центральная студия телевидения
Жанр: драма, экзистенциальная драма, короткометражный
Год создания: 1958
Премьера: 18 января 1959 (ТВ)
Продолжительность: 00:46:27
Перевод: Не требуется
Cубтитры: французские
В ролях: Олег Борисов, Алексей Алексеев, Петр Любешкин, Олег Мокшанцев, Владимир Маренков, Игорь Косухин, Леонид Куравлёв, Станислав Любшин, А. Смирнов (III), Алексей Добронравов, Нина Головина
Описание: Курсовая работа режиссера Андрея Тарковского. Фильм, снятый по мотивам очерка А. Сахнина «Эхо войны» по заказу Молодежной редакции Центрального телевидения совместно с учебной студией ВГИКа, рассказывает о реальных событиях, произошедших в Курске.
Во время земельных работ на улице Советской бригада коммунального хозяйства обнаруживает в земле немецкий склад боеприпасов, оставшийся со времен войны. 30 тонн взрывчатки пролежали в земле 15 лет. По инструкции разминировать нельзя – к ним и прикасаться опасно. Но и взрывать невозможно – вокруг жилые кварталы. Дело поручают группе капитана Галича. К 10 утра следующего дня все население эвакуируют за черту города, а в зловещем котловане 7 человек начинают игру со смертью.
Качество видео: TVRip
Формат видео: AVI
Видео: Xvid, 512x384, 25fps, 4:3, 1179 Kbps
Аудио: MP3, 48000Hz stereo, 97kbps, 2ch,
Формат субтитров: hardsub (неотключаемые)
Сравнение с раздачей DVDRip качества - http://screenshotcomparison.com/comparison/53299

MediaInfo

General
Complete name : D:\CINEMA\Андрей Арсеньевич Тарковский\Andrei.Tarkovsky..Segodnya.uvolnenija.ne.budet..1958-arte_tv_rip_eng_subs.avi
Format : AVI
Format/Info : Audio Video Interleave
File size : 429 MiB
Duration : 46mn 27s
Overall bit rate mode : Variable
Overall bit rate : 1 289 Kbps
Writing application : VirtualDubMod 1.5.10.1 (build 2439/release)
Writing library : VirtualDubMod build 2439/release
Video
ID : 0
Format : MPEG-4 Visual
Format profile : Advanced Simple@L5
Format settings, BVOP : Yes
Format settings, QPel : No
Format settings, GMC : No warppoints
Format settings, Matrix : Default (MPEG)
Codec ID : XVID
Codec ID/Hint : XviD
Duration : 46mn 27s
Bit rate : 1 179 Kbps
Width : 512 pixels
Height : 384 pixels
Display aspect ratio : 4:3
Frame rate : 25.000 fps
Color space : YUV
Chroma subsampling : 4:2:0
Bit depth : 8 bits
Scan type : Progressive
Compression mode : Lossy
Bits/(Pixel*Frame) : 0.240
Stream size : 392 MiB (91%)
Writing library : XviD 1.1.0 Beta1 (UTC 2005-01-16)
Audio
ID : 1
Format : MPEG Audio
Format version : Version 1
Format profile : Layer 3
Codec ID : 55
Codec ID/Hint : MP3
Duration : 46mn 27s
Bit rate mode : Variable
Bit rate : 97.3 Kbps
Minimum bit rate : 64.0 Kbps
Channel count : 2 channels
Sampling rate : 48.0 KHz
Compression mode : Lossy
Stream size : 32.3 MiB (8%)
Alignment : Aligned on interleaves
Interleave, duration : 24 ms (0.60 video frame)
Interleave, preload duration : 532 ms
Writing library : LAME3.91
Encoding settings : -m s -V 3 -q 2 -lowpass 18.6 --vbr-new -b 64

Скриншот c названием фильма

Скриншоты










[teatrix.ru].t4077.torrent 
Торрент: Зарегистрирован [ 2015-10-07 12:13 ] · 61E73524692D7B1D96C7A13E1BBF7433D107AB55

Скачать .torrent

Скачать

17 KB

Статус: проверено
Скачан: 0 раз
Размер: 429 MB
terms.php



Быстрый ответ

Имя:

      
Для отправки сообщений необходимо включить JavaScript
Показать сообщения:    

Текущее время: 11-Дек 15:00

Часовой пояс: UTC + 3


Вы можете начинать темы
Вы можете отвечать на сообщения
Вы не можете редактировать свои сообщения
Вы не можете удалять свои сообщения
Вы не можете голосовать в опросах
Вы не можете прикреплять файлы к сообщениям
Вы можете скачивать файлы