Конечная остановка / The Final Stop (Арсений Гончуков / Arsenyi Gonchukov) [2011, Россия, Социальная драма, Workprint]


Статистика раздачи [Обновить пиров]
Размер:  1.32 GB   |    Зарегистрирован:  1 год 2 месяца   |    Скачан:  0 раз

Полного источника не было: Никогда

 
   
 
 
 

[Цитировать]

Конечная остановка / The Final Stop
Страна: Россия
Жанр: Социальная драма
Год выпуска: 2011
Продолжительность: 00:14:56
Перевод: Не требуется
Cубтитры: нет
Режиссер: Арсений Гончуков / Arsenyi Gonchukov
В ролях: Григорий Иванец, Давид Степанян, Никита Щетинин, Азамат Салиев, Евгений Казак, Роман Степнов, Александр Герасимов, Елена Старостина, Екатерина Дежина, Мария Дежина, Александра Васильева
Описание: Два молодых москвича, два кавказца, которые вытанцовывают лезгинку прямо во дворе жилого дома... Пустой ночной автобус, люди, возвращающиеся домой. Обычная жизнь. Но... Вдруг все это оказывается взрывоопасной смесью, и чем все закончится - до последней минуты не знает, ни зритель, ни главный герой...
"Конечная остановка" появилась в интернете впервые, с момента создания фильма в 2011 году до середины этого года фильма не было в сети, так как длилась его фестивальная история.
Награды:
- Диплом специального упоминания в интернет-конкурсе короткометражного кино XXI фестиваля российского кино "Окно в Европу", г. Санкт-Петербург, 2013 г.
- 1-е место в номинации "Политическое кино" на фестивале короткометражного кино "West Virginia Mountaineer Short Film Festival", Западная Вирджиния, США, 2012 г.;
- Диплом "За отражение болевых моментов в жизни нашего общества". Фестиваль "Святая Анна", г. Москва, 2012 г.;
- Приз серебряный "Жан-Люк" "За правильный пафос" на фестивале авторского кино "Киноликбез", г. Барнаул, 2012 г.;
- Диплом "За смелое обращение к остросоциальной теме" на фестивале короткометражного кино "Зеленое яблоко", г. Новосибирск, 2012 г.;
- Лауреат Независимого интернет-фестиваля авторского кино 3-го киносезона 2013 года ISFF-2013;
В 2013 году фильм принимал участие в 66 Каннском фестивале (Франция), а так же был показан в рамках ММКФ-2012.

Официальный сайт фильма и дополнительные материалы - http://www.konechnaya-ostanovka.ru/
Качество видео: Workprint
Формат видео: AVC
Видео: 1920x1080, 25 fps, MPEG-4, bitrate ~12500 kbps
Аудио: 48.000 KHz, AAC, 2 channels, 157 Kbps

Интересные факты

Фильм был снят на собственные средства всего за 2 съемочных дня в Москве. Актер Гриша Иванец после этой роли получил похожую роль в фильме "Околофутбола", недавно вышедшем в прокат. Сам Григорий согласен с мыслью о том, что после "Конечной остановки" продюсеры пригласили его играть "нациста" в "Околофутбола". "Конечная остановка" - провокационный фильм, за который азербайджанцы обещали подать в суд на режиссера, но вместе с тем фильм показывали в Армении на крупном фестивале. Представители националистически настроенной молодежи так же сильно раскололись в восприятии картины: одни проклинают и фильм и режиссера, другие называют "Конечную остановку" редким и очень правильным "национальным русским фильмом". Правда, режиссер, снимая свой дипломный фильм на режиссерских курсах, меньше всего хотел провокационности. Он попытался рассказать человеческую историю о выборе.

Фильм принимал участие в фестивалях

- 66-й международный Каннский кинофестиваль (Festival international du film de Cannes), Cannes Court Métrage - Short Film Corner, г. Канны, Франция, , 2013 г.;
- Российская программа 34-го Московского международного кинофестиваля, г. Москва;
- 10-й Международный фестиваль короткометражных фильмов One Shot, г. Ереван, Армения;
- Международный кинофестиваль "Chacun son Court", г. Страсбург, Франция;
- Международный кинофестиваль "Ten Festiwal Kijow Warszawa", г. Варшава, Польша;
- Фестиваль "Фабрика культуры", салон Salon Korjaamo, г. Хельсинки, Финляндия;
- Фестиваль авторского короткометражного кино "Арткинофест", г. Москва;
- Международный фестиваль фильмов о правах человека "Сталкер", г. Москва;
-16-й Международный фестиваль независимого кино "Дебоширфильм – Чистые грезы", г. Санкт-Петербург;
- Бердянский международный кинофестиваль, г. Бердянск, Украина;
- Санкт-Петербургский международный кинофестиваль "Фестиваль Фестивалей", Программа "Новое российское кино", г. Санкт-Петербург;
- VII международный кинофестиваль им. Андрея Тарковского “Зеркало”, Программа "Свои. Новое кино России”, г. Иваново, г. Плес;
- Международный фестиваль короткометражного кино "Короче", г. Калининград;
- Национальная премия "Страна", г. Москва.

MediaInfo

Полное имя : Конечная_остановка_Арсений_Гончуков_2011_Россия_драма_HDrip.mp4
Формат : MPEG-4
Профиль формата : Base Media / Version 2
Идентификатор кодека : mp42
Размер файла : 1.32 GiB
Продолжительность : 14mn 57s
Режим общего битрейта : Variable
Общий поток : 12.7 Mbps
Дата кодирования : UTC 2013-03-19 06:49:46
Дата пометки : UTC 2013-03-19 06:49:46
©TIM : 00:51:41:06
©TSC : 25
©TSZ : 1
Video
Идентификатор : 1
Формат : AVC
Формат/Информация : Advanced Video Codec
Профиль формата : High@L4.2
Параметр CABAC формата : Yes
Параметр ReFrames формата : 3 frames
Параметр GOP формата : M=3, N=33
Идентификатор кодека : avc1
Идентификатор кодека/Информация : Advanced Video Coding
Продолжительность : 14mn 57s
Вид битрейта : Constant
Битрейт : 12.5 Mbps
Номинальный битрейт : 15.0 Mbps
Ширина : 1 920 pixels
Высота : 1 080 pixels
Соотношение сторон : 16:9
Режим частоты кадров : Constant
Частота кадров : 25.000 fps
Стандарт вещания : PAL
Цветовое пространство : YUV
Субдискретизация насыщенности : 4:2:0
Битовая глубина : 8 bits
Тип развёртки : Progressive
Бит/(Пиксели*Кадры) : 0.241
Размер потока : 1.31 GiB (99%)
Язык : English
Дата кодирования : UTC 2013-03-19 06:49:46
Дата пометки : UTC 2013-03-19 06:49:46
Основные цвета : BT.709
Характеристики трансфера : BT.709
Коэффициенты матрицы : BT.709
Audio
Идентификатор : 2
Формат : AAC
Формат/Информация : Advanced Audio Codec
Профиль формата : LC
Идентификатор кодека : 40
Продолжительность : 14mn 57s
Продолжительность оригинала : 14mn 57s
Вид битрейта : Variable
Битрейт : 157 Kbps
Максимальный битрейт : 258 Kbps
Каналы : 2 channels
Расположение каналов : Front: L R
Частота : 48.0 KHz
Метод сжатия : Lossy
Размер потока : 16.8 MiB (1%)
Размер потока оригинала : 16.8 MiB (1%)
Язык : English
Дата кодирования : UTC 2013-03-19 06:49:46
Дата пометки : UTC 2013-03-19 06:49:46

Варианты постеров



Фотографии с площадки








[teatrix.ru].t4078.torrent 
Торрент: Зарегистрирован [ 2015-10-07 12:13 ] · 0AB158DC4D0B0B6A28BBDA006B7B74618382ACB5

Скачать .torrent

Скачать

14 KB

Статус: проверено
Скачан: 0 раз
Размер: 1.32 GB
terms.php



Быстрый ответ

Имя:

      
Для отправки сообщений необходимо включить JavaScript
Показать сообщения:    

Текущее время: 08-Дек 08:57

Часовой пояс: UTC + 3


Вы можете начинать темы
Вы можете отвечать на сообщения
Вы не можете редактировать свои сообщения
Вы не можете удалять свои сообщения
Вы не можете голосовать в опросах
Вы не можете прикреплять файлы к сообщениям
Вы можете скачивать файлы