Вожак стаи / Chef de meute (Хлоя Робишо / Chloé Robichaud) [2012, Канада, драма, короткий метр, DVDRip] Sub Rus + Original Fre


Статистика раздачи [Обновить пиров]
Размер:  228 MB   |    Зарегистрирован:  1 год 2 месяца   |    Скачан:  0 раз

Полного источника не было: Никогда

 
   
 
 
 

[Цитировать]

Вожак стаи / Chef de meute-Страна: Канада (Квебек)
Жанр: драма, короткий метр
Год выпуска: 2012
Продолжительность: 00:12:56-Перевод: Субтитры (by sonnyb)
Cубтитры: русские softsub (SRT)
Оригинальная аудиодорожка: французский-Режиссер: Хлоя Робишо / Chloé Robichaud - "Сара предпочитает бегать" (2013)
В ролях: Эва Дюрансо, Ричард Фречетте, Моника Госселин-Описание: Клара ведет спокойную и одинокую жизнь к большому сожалению ее родственников, которые бы хотели, чтобы она встретила спутника жизни. Однажды Кларе в наследство от умершей тетки достается ее домашняя собака. Между ними возникнет невероятная и чрезвычайно сильная дружба…-Качество видео: DVDRip
Формат видео: AVI
Видео: 720x400 (1.80:1), 23.976 fps, XviD build 50 ~2007 kbps avg, 0.29 bit/pixel
Аудио: 48 kHz, AC3 Dolby Digital, 3/2 (L,C,R,l,r) + LFE ch, ~448 kbps-~ Квебекское кино ~-

Пример субтитров

1
00:00:30,434 --> 00:00:33,434
~ Вожак стаи ~
2
00:00:33,535 --> 00:00:35,235
russian subtitles by sonnyb
3
00:00:35,435 --> 00:00:37,869
Тьерри...
4
00:00:38,805 --> 00:00:40,534
А ты ещё можешь...
5
00:00:40,907 --> 00:00:45,867
Можешь ли ты прийти ко мне
позже, чтобы помочь с полками?
6
00:00:45,945 --> 00:00:47,242
Да, конечно.
7
00:00:47,714 --> 00:00:50,444
Если бы у тебя был парень,
мне не нужно было бы приходить,
8
00:00:50,517 --> 00:00:53,611
когда ты захочешь повесить какие-то
картины или полочки с ИКЕИ.
9
00:00:54,454 --> 00:00:56,718
Не трогай её.
Она целиком счастлива и так.
10
00:00:56,790 --> 00:00:59,759
И она закончит старой девой, как и ты?
11
00:01:03,430 --> 00:01:04,658
Очень смешно.
12
00:01:04,731 --> 00:01:06,824
Нет, всё верно.
13
00:01:08,668 --> 00:01:09,862
Я не старая дева.
14
00:01:09,936 --> 00:01:12,803
Нет. Ты независима.
15
00:01:13,773 --> 00:01:17,436
Но женщины в моём возрасте не могут
быть независимыми.
16
00:01:19,345 --> 00:01:22,678
В моём случае я старая дева.
17
00:01:22,749 --> 00:01:25,809
Я бы мог познакомить тебя
с другом с работы.
18
00:01:25,885 --> 00:01:29,480
Он очень хороший парень.
Только что бросил свою подружку.
19
00:01:29,556 --> 00:01:31,285
Он сам о себе не заботится.
20
00:01:31,791 --> 00:01:33,418
Ему только нужна причина.
21
00:01:33,493 --> 00:01:36,587
Если он встретит Клару,
уверен, он приведёт себя в порядок.
22
00:01:43,570 --> 00:01:45,561
Выпей воды, Жаклин.

MediaInfo

Формат : AVI
Формат/Информация : Audio Video Interleave
Размер файла : 228 Мбайт
Продолжительность : 12 м.
Общий поток : 2465 Кбит/сек
Программа кодирования : VirtualDubMod 1.5.10.3 | www.virtualdub-fr.org || (build 2550/release)
Библиотека кодирования : VirtualDubMod build 2550/release
Видео
Идентификатор : 0
Формат : MPEG-4 Visual
Профиль формата : Advanced Simple@L5
Параметр BVOP формата : 1
Параметр QPel формата : Нет
Параметр GMC формата : Без точки перехода
Параметр матрицы формата : Default (MPEG)
Идентификатор кодека : XVID
Идентификатор кодека/Подсказка : XviD
Продолжительность : 12 м.
Битрейт : 2007 Кбит/сек
Ширина : 720 пикс.
Высота : 400 пикс.
Соотношение сторон : 16:9
Частота кадров : 23,976 кадр/сек
Цветовое пространство : YUV
Подвыборка цветности : 4:2:0
Битовая глубина : 8 бит
Тип развёртки : Прогрессивная
Метод сжатия : С потерями
Бит/(Пиксели*Кадры) : 0.291
Размер потока : 186 Мбайт (81%)
Библиотека кодирования : XviD 1.2.1 (UTC 2008-12-04)
Аудио
Идентификатор : 1
Формат : AC-3
Формат/Информация : Audio Coding 3
Расширение режима : CM (complete main)
Идентификатор кодека : 2000
Продолжительность : 12 м.
Вид битрейта : Постоянный
Битрейт : 448 Кбит/сек
Каналы : 6 каналов
Расположение каналов : Front: L C R, Side: L R, LFE
Частота : 48,0 КГц
Битовая глубина : 16 бит
Метод сжатия : С потерями
Размер потока : 41,5 Мбайт (18%)
Выравнивание : Разделение по промежуткам
Продолжительность промежутка : 42 мс. (1,00 видеокадр)
Время предзагрузки промежутка : 500 ms

Скриншоты

[teatrix.ru].t4081.torrent 
Торрент: Зарегистрирован [ 2015-10-07 12:13 ] · AF02594F4AAA8B01486BE64B959A7565AD2CD072

Скачать .torrent

Скачать

18 KB

Статус: проверено
Скачан: 0 раз
Размер: 228 MB
terms.php



Быстрый ответ

Имя:

      
Для отправки сообщений необходимо включить JavaScript
Показать сообщения:    

Текущее время: 10-Дек 23:27

Часовой пояс: UTC + 3


Вы можете начинать темы
Вы можете отвечать на сообщения
Вы не можете редактировать свои сообщения
Вы не можете удалять свои сообщения
Вы не можете голосовать в опросах
Вы не можете прикреплять файлы к сообщениям
Вы можете скачивать файлы