Манхэттенский фестиваль короткометражного кино 2012 / The Manhattan Short Film Festival 2012 [2012 г., сборник, к/м, DVDRip]


Статистика раздачи [Обновить пиров]
Размер:  1.56 GB   |    Зарегистрирован:  1 год 2 месяца   |    Скачан:  0 раз

Полного источника не было: Никогда

 
   
 
 
 

[Цитировать]

Манхэттенский фестиваль короткометражного кино 2012 / The Manhattan Short Film Festival 2012
Страна: Норвегия, Нидерланды, Россия, Англия,Ирландия, Перу, Франция, Румыния, США , Испания
Жанр: короткий метр
Год выпуска: 2012
Продолжительность: 02:11:23
Перевод: Субтитры
Cубтитры: русские
Формат субтитров: hardsub (неотключаемые)
Режиссер: Хенрик М Далсбракен,Йост Реймерс,Виталий Салтыков,Бабак Анвари,Майкл Лавелл,Хулио О. Рамос,Клеман Болла, Франсуа-Ксавье Гоби, Матье Ландур,Тодор Джиорджио,Тодд Склар,Мартин Росете
Описание: ПРОГРАММА МАНХЭТТЕНСКОГО ФЕСТИВАЛЯ КОРОТКОМЕТРАЖНОГО КИНО 2012
№ 1. Танцплощадка дьявола / The Devil’s Ballroom
Хенрик М Далсбракен / Норвегия / 15’30”
Награда за мастерство и приз художнику-постановщику Los Angeles Movie Movie Awards; лучший игровой фильм Palm Springs international Shortfest
Одинокий исследователь Арктики во время своего опасного путешествия на Северный полюс принимает решение с далеко идущими последствиями.
№ 2. Любопытное стечение обстоятельств / A Curious Conjunction of Coincidences
Йост Реймерс / Нидерланды / 8’34”
Приз зрительских симпатий за лучший игровой короткометражный фильм фильм Palm Springs International Shortfest
Сегодня сложный день для трех мужчин, живущих в трех разных эпохах…
Приготовьтесь к абсурдной истории, которая свяжет эту троицу вместе.

№ 3. Куда течет море / Where Does the Sea Flow
Виталий Салтыков / Россия / 14’00”
В главной роли Оксана Акиньшина
Мама испытывает к пятилетней дочери странные чувства. Она её любит, но в то же время боится и ненавидит, потому что дочь напоминает о страшной трагедии.
№ 4. Два плюс два / Two & Two
Бабак Анвари / Великобритания / 8’25”
Номинант на премию BAFTA в категории Лучший короткометражный фильм
На уроке математики ученики узнают, что два плюс два равняется пяти. Решить уравнение по-другому – преступление. Эта короткая зарисовка о механизмах диктатуры и тирании.
№ 5. Курица / Cluck
Майкл Лавелл / Ирландия / 18’57”
Номинант на премию Irish Film and Television Academy в категории лучший короткометражный фильм
В приюте пух да перья летят, когда в нем появляется новый мальчик. Конечно, ведь он грозит разрушить установленный порядок.
№ 6. За зеркалами / Behind the Mirrors
Хулио О. Рамос / Перу / 12’00”
Награда за лучший игровой студенческий фильм Palm Springs International Shortfest
Сотрудник дешевого мотеля прибегает к спорному способу заработать деньги, лишь бы свести концы с концами. Неожиданная смерть одного из постояльцев ставит под сомнение его нелегальный бизнес.
№ 7. Тщательно продуманная кончина Роберта Эбба / The Elaborate End of Robert Ebb
Клеман Болла, Франсуа-Ксавье Гоби, Матье Ландур / Великобритания, Франция / 12’50”
Премия Canal+ Clermont-Ferrand International Film Festival
Парень, девушка, костюм монстра, вооруженные горожане, трагический финал…
№ 8. Супермен, Человек-паук или Бэтмен / Superman, Spiderman or Batman
Тодор Джиорджио / Румыния / 11’00”
Приз за лучший игровой короткометражный фильм Aspen Shortfest; приз за лучший короткометражный фильм KALIBER35 Munich International Short Film Festival
Вдохновленный любимыми героями комиксов, мальчик решает спасти свою маму.
№ 9. Коллекционная карточка / '92 Skybox Alonzo Mourning Rookie Card
Тодд Склар / США / 12’00”
Участник Sundance Film Festival
Братья Джим и Дэйв решает все свои разногласия радикальным способом, когда их отец умирает.
№ 10. Голос за кадром / Voice Over
Мартин Росете / Испания / 9’50”
Награда за лучший короткометражный фильм Monaco International Film Festival; номинант на приз за лучший игровой короткометражный фильм Tribeca Film Festival;
Я не скажу тебе, чей голос за кадром ведет нас через три разные экстремальные ситуации, которые в общем-то одинаковые. Выживешь ли ты?
Доп. информация: В 2012 году 150000 киноманов из 300 городов мира объединятся для одной цели - проголосовать за лучший фильм Манхэттенского фестиваля короткометражного кино (Нью-Йорк, США). В битве за первое место сойдутся режиссеры из Норвегии, Нидерландов, России, Англии,Ирландии, Перу, Франции, Румынии, США и Испании.
Впервые за 15-летнюю историю фестиваля в программу вошел фильм российского режиссера — кинодебют известного петербургского актера Виталия Салтыкова «Куда течет море» с Оксаной Акиньшиной в главной роли!
Сэмпл: http://multi-up.com/914113
Качество видео: DVDRip
Формат видео: AVI
Видео: XviD,720х408,16:9, 25 fps, 1496 Кбит/сек, 0.204 bit/pixel
Аудио: AC-3,48,0 КГц,192 Кбит/сек,Front: L R, 16 бит

MediaInfo

Формат : AVI
Формат/Информация : Audio Video Interleave
Размер файла : 1,56 Гбайт
Продолжительность : 2 ч. 11 м.
Общий поток : 1697 Кбит/сек
Программа кодирования : VirtualDubMod 1.5.10.3 | www.virtualdub-fr.org || (build 2550/release)
Библиотека кодирования : Boilsoft AVI tool build 30012/release
Видео
Идентификатор : 0
Формат : MPEG-4 Visual
Профиль формата : Advanced Simple@L5
Параметр BVOP формата : 2
Параметр QPel формата : Нет
Параметр GMC формата : Без точки перехода
Параметр матрицы формата : Default (H.263)
Идентификатор кодека : XVID
Идентификатор кодека/Подсказка : XviD
Продолжительность : 2 ч. 11 м.
Битрейт : 1496 Кбит/сек
Ширина : 720 пикселей
Высота : 408 пикселей
Соотношение сторон : 16:9
Частота кадров : 25,000 кадров/сек
Цветовое пространство : YUV
Субдискретизация насыщенности : 4:2:0
Битовая глубина : 8 бит
Тип развёртки : Прогрессивная
Метод сжатия : С потерями
Бит/(Пиксели*Кадры) : 0.204
Размер потока : 1,37 Гбайт (88%)
Библиотека кодирования : XviD 1.2.1 (UTC 2008-12-04)
Аудио
Идентификатор : 1
Формат : AC-3
Формат/Информация : Audio Coding 3
Расширение режима : CM (complete main)
Параметр Endianness формата : Big
Идентификатор кодека : 2000
Продолжительность : 2 ч. 11 м.
Вид битрейта : Постоянный
Битрейт : 192 Кбит/сек
Каналы : 2 канала
Расположение каналов : Front: L R
Частота : 48,0 КГц
Битовая глубина : 16 бит
Метод сжатия : С потерями
Задержка видео : 24 мс.
Размер потока : 180 Мбайт (11%)
Выравнивание : Разделение по промежуткам
Продолжительность промежутка : 40 мс. (1,00 видеокадр)
Время предзагрузки промежутка : 500 мс.

Скриншот c названием фильма

cмотрите также:http://teatrix.ru/tracker.php?nm=%D0%9C%D0%B0%D0%BD...0%B0%D0%BB%D1%8C
[teatrix.ru].t4085.torrent 
Торрент: Зарегистрирован [ 2015-10-07 12:13 ] · BF50079A7B6ACA1C06171E13B466B31DBC0A9925

Скачать .torrent

Скачать

16 KB

Статус: проверено
Скачан: 0 раз
Размер: 1.56 GB
terms.php



Быстрый ответ

Имя:

      
Для отправки сообщений необходимо включить JavaScript
Показать сообщения:    

Текущее время: 08-Дек 19:10

Часовой пояс: UTC + 3


Вы можете начинать темы
Вы можете отвечать на сообщения
Вы не можете редактировать свои сообщения
Вы не можете удалять свои сообщения
Вы не можете голосовать в опросах
Вы не можете прикреплять файлы к сообщениям
Вы можете скачивать файлы