Манхэттенский фестиваль короткометражного кино 2013 / The Manhattan Short Film Festival 2013 [2013 г., сборник, к/м, DVDRip]


Статистика раздачи [Обновить пиров]
Размер:  1.42 GB   |    Зарегистрирован:  1 год 2 месяца   |    Скачан:  0 раз

Полного источника не было: Никогда

 
   
 
 
 

[Цитировать]

Манхэттенский фестиваль короткометражного кино 2013 / The Manhattan Short Film Festival 2013
Страна: Австралия,Франция,США,Финляндия,Англия,Ирландия
Жанр: короткий метр
Год выпуска: 2013
Продолжительность: 01:45:04
Перевод: Субтитры
Cубтитры: русские
Режиссер: Тимоти Уайльд,Александра Наум,Кет Кендлер,Сельма Вильхунен,Марк Наннели,Тони Донохью,Бастьен Дюбуа,Себастьян Райс-Эдвардс,Джейкоб Сильман,Кен Урбан
В ролях: Илинка Роу,Джессика Викерс,Рис Ной
Описание: ПРОГРАММА ФЕСТИВАЛЯ
№30 / #30
Страна: Австралия, 2013 г.
Хронометраж: 9 мин.
Режиссер: Тимоти Уайльд
Талантливая молодая актриса пробуется на роль Гамлета — и даже сам Шекспир не смог бы угадать, чем все обернется!
Без комментариев / No comments
Страна: Франция, 2012 г.
Хронометраж: 4 мин.
Режиссер: Александра Наум
Девушка заводит два неожиданных знакомства с мужчинами в Люксембургском саду в Париже.
Блэк-метал / Black metal
Страна: США, 2013 г.
Хронометраж: 9 мин.
Режиссер: Кет Кендлер

Вокалист блэк-метал группы сталкивается с последсвиями влияния своих полных насилия текстов.

Должна ли я позаботиться обо всем? / Do I Have to Take Care of Everything?
Страна: Финляндия, 2012 г.
Хронометраж: 7 мин.
Жанр: Комедия
Режиссер: Сельма Вильхунен
История одного хаотичного утра финской семьи, чья мама стремится все контролировать.
Забегаловка Кисмет / Kismet diner
Страна: Англия, 2013 г.
Хронометраж: 9 мин.
Режиссер: Марк Наннели
Официантка в кафе с помощью песни находит ключ к сердцу скучающего посетителя.
Ирландская народная мебель / Irish Folk Furniture
Страна: Ирландия, 2012 г.
Хронометраж: 9 мин.
Жанр: Анимация
Режиссер: Тони Донохью
Документальный мультфильм о старинной ирландской мебели.
Лица мира / Portraits de Voyages
Страна: Франция, 2013 г.
Хронометраж: 9 мин.
Режиссер: Бастьен Дюбуа
Портреты Москвы, Пакистана и Квебека глазами путешествующего иллюстратора со вкусом к приключениям.
Пятница / Friday
Страна: Англия, 2012 г.
Хронометраж: 18 мин.
Режиссер: Себастьян Райс-Эдвардс
Молодой человек готовится отомстить за смерть своей матери, погибшей год назад во время теракта в Лондоне.
Черта оседлости / The Pale of Settlement
Страна: США, 2013 г.
Хронометраж: 18 мин.
Режиссер: Джейкоб Сильман
Фильм, основанный на реальных событиях из семейной истории режиссера. Рассказ о десятилетнем еврейском мальчике, который пытается избежать принудительного призыва в русскую армию в период Крымской войны.
Я - большой комок грусти / I Am a Great Big Ball Of Sadness
Страна: США, 2013 г.
Хронометраж: 9 мин.
Режиссер: Кен Урбан
Во время шикарной вечеринки на крыше в Нью-Йорке трое гостей выходят за рамки обычной светской беседы.
Доп. информация: Крупнейший в мире интерактивный Манхэттенский фестиваль короткометражных фильмов ежегодно собирает заявки от режиссеров всего мира и в сентябре представляет очередную подборку из 10 финалистов. Победителей определяет многочисленная международная аудитория в течении одной недели.
Сэмпл: http://multi-up.com/910954
Качество видео: DVDRip
Формат видео: AVI
Видео: 720х408,23.976 fps,XVID codek, 1 544 Kbps, 0.219 bit/pixel
Аудио: 48.0 KHz,AC-3, 2 channels, Front: L R, 384 Kbps
Формат субтитров: hardsub (неотключаемые)

MediaInfo

General
Complete name : D:\MF\The_Manhattan_Short_Film_Festival_2013.avi
Format : AVI
Format/Info : Audio Video Interleave
File size : 1.42 GiB
Duration : 1h 45mn
Overall bit rate : 1 937 Kbps
Writing application : VirtualDubMod 1.5.10.3 | www.virtualdub-fr.org || (build 2550/release)
Writing library : Boilsoft AVI tool build 1/release
Video
ID : 0
Format : MPEG-4 Visual
Format profile : Advanced Simple@L5
Format settings, BVOP : 2
Format settings, QPel : No
Format settings, GMC : No warppoints
Format settings, Matrix : Default (H.263)
Codec ID : XVID
Codec ID/Hint : XviD
Duration : 1h 45mn
Bit rate : 1 544 Kbps
Width : 720 pixels
Height : 408 pixels
Display aspect ratio : 16:9
Frame rate : 23.976 fps
Color space : YUV
Chroma subsampling : 4:2:0
Bit depth : 8 bits
Scan type : Progressive
Compression mode : Lossy
Bits/(Pixel*Frame) : 0.219
Stream size : 1.13 GiB (80%)
Writing library : XviD 1.2.1 (UTC 2008-12-04)
Audio
ID : 1
Format : AC-3
Format/Info : Audio Coding 3
Mode extension : CM (complete main)
Format settings, Endianness : Big
Codec ID : 2000
Duration : 1h 45mn
Bit rate mode : Constant
Bit rate : 384 Kbps
Channel(s) : 2 channels
Channel positions : Front: L R
Sampling rate : 48.0 KHz
Bit depth : 16 bits
Compression mode : Lossy
Delay relative to video : 26ms
Stream size : 289 MiB (20%)
Alignment : Split accross interleaves
Interleave, duration : 42 ms (1.00 video frame)
Interleave, preload duration : 500 ms

Скриншот c названием фильма

Скриншоты

[teatrix.ru].t4086.torrent 
Торрент: Зарегистрирован [ 2015-10-07 12:13 ] · 6AB7B0855CF3298593DAE7C4B3D7133F59651004

Скачать .torrent

Скачать

15 KB

Статус: проверено
Скачан: 0 раз
Размер: 1.42 GB
terms.php



Быстрый ответ

Имя:

      
Для отправки сообщений необходимо включить JavaScript
Показать сообщения:    

Текущее время: 08-Дек 21:12

Часовой пояс: UTC + 3


Вы можете начинать темы
Вы можете отвечать на сообщения
Вы не можете редактировать свои сообщения
Вы не можете удалять свои сообщения
Вы не можете голосовать в опросах
Вы не можете прикреплять файлы к сообщениям
Вы можете скачивать файлы