Этажом выше / Следующий этаж / Next Floor (Дени Вильнёв / Denis Villeneuve) [2008, Канада, гротеск, абсурд, короткий метр, SATRip]


Статистика раздачи [Обновить пиров]
Размер:  151 MB   |    Зарегистрирован:  1 год 1 месяц   |    Скачан:  0 раз

Полного источника не было: Никогда

 
   
 
 
 

[Цитировать]

Следующий этаж
Next Floor- Страна: Канада
Жанр: гротеск, абсурд, короткий метр
Год выпуска: 2008
Продолжительность: 00:11:49
Перевод: Не требуется
Cубтитры: нет
Оригинальная аудиодорожка: нет диалогов
Режиссер: Дени Вильнёв / Denis VilleneuveВ ролях: Жан Маршан / Jean Marchand (Maître D'), Денни Сен-Джон / Dennis St John (Guest), Валери Вайсман / Valérie Wiseman (Guest), Уоррен Уильямс / Warren 'Slim' Williams (Pianist)
Описание: Во время роскошного банкета одиннадцать пресыщенных "сладкой жизнью" гостей устраивают своеобразное гастрономическое состязание. Неожиданный поворот событий в этой абсурдной гротескной вселенной взрывает изнутри бесконечную симфонию изобилия, создавая отталкивающую метафору нашего ненасытного потребительского аппетита.
Доп. информация: файл получен через groups.yahoo
Награды: приз Canal+ Award на "Неделе критики" Cannes Film Festival 2008 за лучшую короткометражку; приз Genie Awards 2009 за лучшую короткометражную драму; приз Jutra Awards 2009 за лучшую короткометражку; более 60 наград МКФ.
Информация: http://www.imdb.com/title/tt1255891/
Сэмпл: http://multi-up.com/910679
Качество видео: SATRip
Формат видео: AVI
Видео: XviD, 680x288 (2.36:1), 23.976 fps, ATI YVU12 4:2:0 Planar ~1585 kbps avg, 0.338 bit/pixel
Аудио: 48 kHz, MPEG Layer 3, 2 ch, ~192.00 kbps avg

MediaInfo

Полное имя : H:\My Torrents\[apreder]MINI_MOVIE_008\[apreder]MM_Next_Floor(2008)SATRip.aviФормат : AVIФормат/Информация : Audio Video InterleaveРазмер файла : 151 МбайтПродолжительность : 11 м.Общий поток : 1787 Кбит/сек
ВидеоИдентификатор : 0Формат : MPEG-4 VisualПрофиль формата : Advanced Simple@L5Параметр BVOP формата : 2Параметр QPel формата : НетПараметр GMC формата : Без точки переходаПараметр матрицы формата : Default (H.263)Идентификатор кодека : XVIDИдентификатор кодека/Подсказка : XviDПродолжительность : 11 м.Битрейт : 1585 Кбит/секШирина : 680 пикселейВысота : 288 пикселейСоотношение сторон : 2,35:1Частота кадров : 23,976 кадра/секЦветовое пространство : YUVСубдискретизация насыщенности : 4:2:0Битовая глубина : 8 битТип развёртки : ПрогрессивнаяМетод сжатия : С потерямиБит/(Пиксели*Кадры) : 0.338Размер потока : 134 Мбайт (89%)Библиотека кодирования : XviD 64
АудиоИдентификатор : 1Формат : MPEG AudioВерсия формата : Version 1Профиль формата : Layer 3Режим : Joint stereoИдентификатор кодека : 55Идентификатор кодека/Подсказка : MP3Продолжительность : 11 м.Вид битрейта : ПостоянныйБитрейт : 192 Кбит/секКаналы : 2 каналаЧастота : 48,0 КГцМетод сжатия : С потерямиРазмер потока : 16,2 Мбайт (11%)Выравнивание : Разделение по промежуткамПродолжительность промежутка : 42 мс. (1,00 видеокадр)Время предзагрузки промежутка : 500 мс.Библиотека кодирования : LAME3.98.4

Скриншот c названием фильма

Скриншоты

Резервные скриншоты

-1'002/984√
[teatrix.ru].t4087.torrent 
Торрент: Зарегистрирован [ 2015-10-07 12:13 ] · 8058F0AAF4F61D4F74EAAD081240EA171D2CF790

Скачать .torrent

Скачать

12 KB

Статус: проверено
Скачан: 0 раз
Размер: 151 MB
terms.php



Быстрый ответ

Имя:

      
Для отправки сообщений необходимо включить JavaScript
Показать сообщения:    

Текущее время: 04-Дек 15:11

Часовой пояс: UTC + 3


Вы можете начинать темы
Вы можете отвечать на сообщения
Вы не можете редактировать свои сообщения
Вы не можете удалять свои сообщения
Вы не можете голосовать в опросах
Вы не можете прикреплять файлы к сообщениям
Вы можете скачивать файлы