Конфета / Candy (Никита Овсянников) [2008, Россия, драма, научная фантастика, короткий метр, DVDRip]


Статистика раздачи [Обновить пиров]
Размер:  194 MB   |    Зарегистрирован:  1 год 1 месяц   |    Скачан:  0 раз

Полного источника не было: Никогда

 
   
 
 
 

[Цитировать]

Конфета
Candy- Страна: Россия
Жанр: драма, научная фантастика, короткий метр
Год выпуска: 2008
Продолжительность: 00:12:30
Перевод: Не требуется
Cубтитры: английские
Режиссер: Никита ОвсянниковВ ролях: Александр Помогайлов (Вася), Андрей Овсянников (Ваня), Олег Мальцев (голос по радио)
Описание: Дебютная работа молодого независимого режиссера из Пятигорска Никиты Овсянникова уже несет в себе узнаваемый авторский стиль, достигший на сегодня кульминации в фильме "Возвращение" (2010). Никита Овсянников, создатель N.I.K. studio, хочет доказать, что не обязательно иметь большой бюджет, чтобы создавать кино, которое способно брать за душу и вдохновлять.
Это история двух исследователей, которых ждет неминуемая катастрофа. На ее фоне одному из героев придется принять, возможно, важнейшее решение в своей жизни. (анонс журнала "Мир фантастики")
Мы почти всегда можем исправить свои ошибки. Но что нам делать, если мы вне времени? Двое мужчин на удаленной станции. Две жизни — одна судьба. Это фильм о жизни сегодня, потому что завтра может никогда не настать.
Доп. информация: Оригинальные титры фильма на английском языке + авторские вшитые английские субтитры. Фильм вышел на DVD-приложении к журналу "Мир фантастики" № 62, октябрь 2008 г.
Участник Miami Short Film Festival 2008; Beverly Hills Hi-Def Film Festival 2008; Athens International Sci-Fi & Fantasy Film Festival 2008.
Информация: http://www.imdb.com/title/tt2145633/
Сэмпл: http://multi-up.com/910391
Качество видео: DVDRip
Формат видео: AVI
Видео: XviD, 720x400 (1.80:1), 25 fps, ATI YVU12 4:2:0 Planar ~1964 kbps avg, 0.273 bit/pixel
Аудио: 48 kHz, MPEG Layer 3, 2 ch, ~192.00 kbps avg
Формат субтитров: hardsub (неотключаемые)

MediaInfo

Полное имя : H:\My Torrents\[apreder]MINI_MOVIE_008\[apreder]MM_Candy(2008)DVDRip.aviФормат : AVIФормат/Информация : Audio Video InterleaveРазмер файла : 194 МбайтПродолжительность : 12 м.Общий поток : 2166 Кбит/сек
ВидеоИдентификатор : 0Формат : MPEG-4 VisualПрофиль формата : Advanced Simple@L5Параметр BVOP формата : 2Параметр QPel формата : НетПараметр GMC формата : Без точки переходаПараметр матрицы формата : Default (H.263)Идентификатор кодека : XVIDИдентификатор кодека/Подсказка : XviDПродолжительность : 12 м.Битрейт : 1964 Кбит/секШирина : 720 пикселейВысота : 400 пикселейСоотношение сторон : 16:9Частота кадров : 25,000 кадров/секЦветовое пространство : YUVСубдискретизация насыщенности : 4:2:0Битовая глубина : 8 битТип развёртки : ПрогрессивнаяМетод сжатия : С потерямиБит/(Пиксели*Кадры) : 0.273Размер потока : 176 Мбайт (91%)Библиотека кодирования : XviD 64
АудиоИдентификатор : 1Формат : MPEG AudioВерсия формата : Version 1Профиль формата : Layer 3Режим : Joint stereoРасширение режима : MS StereoИдентификатор кодека : 55Идентификатор кодека/Подсказка : MP3Продолжительность : 12 м.Вид битрейта : ПостоянныйБитрейт : 192 Кбит/секКаналы : 2 каналаЧастота : 48,0 КГцМетод сжатия : С потерямиРазмер потока : 17,2 Мбайт (9%)Выравнивание : Разделение по промежуткамПродолжительность промежутка : 40 мс. (1,00 видеокадр)Время предзагрузки промежутка : 500 мс.Библиотека кодирования : LAME3.98.4

Скриншот c названием фильма

Скриншоты

Резервные скриншоты

-1'000/982√
[teatrix.ru].t4088.torrent 
Торрент: Зарегистрирован [ 2015-10-07 12:13 ] · C84FA91EAB951545527851AEEB125AF239E4536D

Скачать .torrent

Скачать

16 KB

Статус: проверено
Скачан: 0 раз
Размер: 194 MB
terms.php



Быстрый ответ

Имя:

      
Для отправки сообщений необходимо включить JavaScript
Показать сообщения:    

Текущее время: 04-Дек 11:14

Часовой пояс: UTC + 3


Вы можете начинать темы
Вы можете отвечать на сообщения
Вы не можете редактировать свои сообщения
Вы не можете удалять свои сообщения
Вы не можете голосовать в опросах
Вы не можете прикреплять файлы к сообщениям
Вы можете скачивать файлы