Взаперти / Locked (Никита Овсянников) [2010, Россия, криминальный триллер, черный юмор, короткий метр, SATRip]


Статистика раздачи [Обновить пиров]
Размер:  145 MB   |    Зарегистрирован:  1 год 2 месяца   |    Скачан:  0 раз

Полного источника не было: Никогда

 
   
 
 
 

[Цитировать]

Взаперти
Locked- Страна: Россия
Жанр: криминальный триллер, черный юмор, короткий метр
Год выпуска: 2010
Продолжительность: 00:09:25
Перевод: Не требуется
Cубтитры: английские
Режиссер: Никита Овсянников
В ролях: Олег Мальцев, Эмилия РомановаОписание: На счету молодого независимого режиссера из Пятигорска Никиты Овсянникова уже несколько удачных короткометражек, отличающихся самобытным стилем и нестандартными сюжетами.
Автомобильный вор приходит в себя в машине, которую он украл. Он связан и заперт. И он даже не может представить, какой сюрприз его ожидает…-Исполнитель ролей в большинстве фильмов режиссера Олег Мальцев окончил университет по специальности русский язык и литература. Увлечен процессом создания кинофильмов, пишет музыку для души и оформляет звуковой ряд для всех проектов N.I.K. studio.-Доп. информация: авторские вшитые английские субтитры.
Сэмпл: http://multi-up.com/910146
Качество видео: SATRip
Формат видео: AVI
Видео: XviD, 720x320 (2.25:1), 25 fps, ATI YVU12 4:2:0 Planar ~1952 kbps avg, 0.339 bit/pixel
Аудио: 48 kHz, MPEG Layer 3, 2 ch, ~192.00 kbps avg
Формат субтитров: hardsub (неотключаемые)

MediaInfo

Полное имя : H:\My Torrents\[apreder]MINI_MOVIE_008\[apreder]MM_Locked(2010)SATRip.aviФормат : AVIФормат/Информация : Audio Video InterleaveРазмер файла : 145 МбайтПродолжительность : 9 м. 25 с.Общий поток : 2154 Кбит/секПрограмма кодирования : VirtualDubMod 1.5.10.3 | www.virtualdub-fr.org || (build 2550/release)Библиотека кодирования : VirtualDubMod build 2550/release
ВидеоИдентификатор : 0Формат : MPEG-4 VisualПрофиль формата : Advanced Simple@L5Параметр BVOP формата : 2Параметр QPel формата : НетПараметр GMC формата : Без точки переходаПараметр матрицы формата : Default (H.263)Идентификатор кодека : XVIDИдентификатор кодека/Подсказка : XviDПродолжительность : 9 м. 25 с.Битрейт : 1952 Кбит/секШирина : 720 пикселейВысота : 320 пикселейСоотношение сторон : 2,25:1Соотношение сторон в оригинале : 2,25:1Частота кадров : 25,000 кадров/секЦветовое пространство : YUVСубдискретизация насыщенности : 4:2:0Битовая глубина : 8 битТип развёртки : ПрогрессивнаяМетод сжатия : С потерямиБит/(Пиксели*Кадры) : 0.339Размер потока : 132 Мбайт (91%)Библиотека кодирования : XviD 64
АудиоИдентификатор : 1Формат : MPEG AudioВерсия формата : Version 1Профиль формата : Layer 3Режим : Joint stereoИдентификатор кодека : 55Идентификатор кодека/Подсказка : MP3Продолжительность : 9 м. 25 с.Вид битрейта : ПостоянныйБитрейт : 192 Кбит/секКаналы : 2 каналаЧастота : 48,0 КГцМетод сжатия : С потерямиРазмер потока : 12,9 Мбайт (9%)Выравнивание : Разделение по промежуткамПродолжительность промежутка : 40 мс. (1,00 видеокадр)Время предзагрузки промежутка : 500 мс.Библиотека кодирования : LAME3.98.4

Скриншот c названием фильма

Скриншоты

Резервные скриншоты

-997/979√
[teatrix.ru].t4089.torrent 
Торрент: Зарегистрирован [ 2015-10-07 12:13 ] · 92AD85233CA469FAD73DDB621ED385CAE3165587

Скачать .torrent

Скачать

12 KB

Статус: проверено
Скачан: 0 раз
Размер: 145 MB
terms.php



Быстрый ответ

Имя:

      
Для отправки сообщений необходимо включить JavaScript
Показать сообщения:    

Текущее время: 09-Дек 10:50

Часовой пояс: UTC + 3


Вы можете начинать темы
Вы можете отвечать на сообщения
Вы не можете редактировать свои сообщения
Вы не можете удалять свои сообщения
Вы не можете голосовать в опросах
Вы не можете прикреплять файлы к сообщениям
Вы можете скачивать файлы