Молчание / Sessiz / Be Deng (Л. Резан Ешилбаш / L. Rezan Yesilbas) [2012, Турция, Короткий метр, драма, DVDRip] VO + Sub Rus


Статистика раздачи [Обновить пиров]
Размер:  212 MB   |    Зарегистрирован:  1 год 1 месяц   |    Скачан:  0 раз

Полного источника не было: Никогда

 
   
 
 
 

[Цитировать]

Молчание / Sessiz / Be Deng
Страна: Турция
Жанр: Короткий метр, драма
Год выпуска: 2012
Продолжительность: 00:14:14
Перевод: Одноголосый закадровый
Cубтитры: русские
Оригинальная аудиодорожка: Курдский и Турецкий
Режиссер: Л. Резан Ешилбаш / L. Rezan Yesilbas
В ролях: Бельчим Билгин, Сем Бендер
Описание: 1984 год. Зейнеп живет в Диярбакыре с тремя детьми. И кажется, что она занята своими делами. Зейнеп собирается навестить мужа в тюрьме...
Сэмпл: http://multi-up.com/900028
Качество видео: DVDRip
Формат видео: AVI
Видео: 720x400 (1.80:1), 25 fps, XviD build 50 ~1679 kbps avg, 0.23 bit/pixel
Аудио 1: 48 kHz, MPEG Layer 3, 2 ch, ~192.00 kbps avg(Русский)
Аудио 2: 48 kHz, AC3 Dolby Digital, 2/0 (L,R) ch, ~192.00 kbps avg(Курдский и Турецкий)
Формат субтитров: softsub (SRT)
Доп. информация о субтитрах: Русские внешние (sonnyb)

MediaInfo

Общее
Полное имя : D:\Мои видеозаписи\Молчание\Sessiz (Be Deng) Rezan Yesilbas.avi
Формат : AVI
Формат/Информация : Audio Video Interleave
Размер файла : 212 Мбайт
Продолжительность : 14 м.
Общий поток : 2079 Кбит/сек
Программа кодирования : VirtualDubModRus 1.5.10.2 (build 2542/release)
Библиотека кодирования : VirtualDubMod build 2542/release
Видео
Идентификатор : 0
Формат : MPEG-4 Visual
Профиль формата : Advanced Simple@L5
Параметр BVOP формата : 2
Параметр QPel формата : Нет
Параметр GMC формата : Без точки перехода
Параметр матрицы формата : Default (MPEG)
Идентификатор кодека : XVID
Идентификатор кодека/Подсказка : XviD
Продолжительность : 14 м.
Битрейт : 1681 Кбит/сек
Ширина : 720 пикселей
Высота : 400 пикселей
Соотношение сторон : 16:9
Частота кадров : 25,000 кадров/сек
Цветовое пространство : YUV
Субдискретизация насыщенности : 4:2:0
Битовая глубина : 8 бит
Тип развёртки : Прогрессивная
Метод сжатия : С потерями
Бит/(Пиксели*Кадры) : 0.233
Размер потока : 171 Мбайт (81%)
Библиотека кодирования : XviD 1.2.1 (UTC 2008-12-04)
Аудио #1
Идентификатор : 1
Формат : MPEG Audio
Версия формата : Version 1
Профиль формата : Layer 3
Режим : Joint stereo
Расширение режима : MS Stereo
Идентификатор кодека : 55
Идентификатор кодека/Подсказка : MP3
Продолжительность : 14 м.
Вид битрейта : Постоянный
Битрейт : 192 Кбит/сек
Каналы : 2 канала
Частота : 48,0 КГц
Метод сжатия : С потерями
Размер потока : 19,5 Мбайт (9%)
Выравнивание : Соединение по промежуткам
Продолжительность промежутка : 40 мс. (1,00 видеокадр)
Время предзагрузки промежутка : 504 мс.
Библиотека кодирования : LAME3.98
Аудио #2
Идентификатор : 2
Формат : AC-3
Формат/Информация : Audio Coding 3
Расширение режима : CM (complete main)
Идентификатор кодека : 2000
Продолжительность : 14 м.
Вид битрейта : Постоянный
Битрейт : 192 Кбит/сек
Каналы : 2 канала
Расположение каналов : Front: L R
Частота : 48,0 КГц
Битовая глубина : 16 бит
Метод сжатия : С потерями
Размер потока : 19,5 Мбайт (9%)
Выравнивание : Разделение по промежуткам
Продолжительность промежутка : 40 мс. (1,00 видеокадр)
Время предзагрузки промежутка : 500 мс.

Скриншоты

[teatrix.ru].t4090.torrent 
Торрент: Зарегистрирован [ 2015-10-07 12:13 ] · CA93BAEC906D0E25710080181BD83E6EEC3C6B6D

Скачать .torrent

Скачать

17 KB

Статус: проверено
Скачан: 0 раз
Размер: 212 MB
terms.php



Быстрый ответ

Имя:

      
Для отправки сообщений необходимо включить JavaScript
Показать сообщения:    

Текущее время: 03-Дек 03:18

Часовой пояс: UTC + 3


Вы можете начинать темы
Вы можете отвечать на сообщения
Вы не можете редактировать свои сообщения
Вы не можете удалять свои сообщения
Вы не можете голосовать в опросах
Вы не можете прикреплять файлы к сообщениям
Вы можете скачивать файлы