Камерная музыка / Musique de chambre (Джулия Ковальски / Julia Kowalski) [2012, Франция, комедия, короткий метр, DVB] Original (Fre) + Sub (rus)


Статистика раздачи [Обновить пиров]
Размер:  416 MB   |    Зарегистрирован:  1 год 1 месяц   |    Скачан:  1 раз

Полного источника не было: 6 месяцев 4 дня

 
   
 
 
 

[Цитировать]

Камерная музыка
Musique de chambre- Страна: Франция
Жанр: комедия, короткий метр
Год выпуска: 2012
Продолжительность: 00:22:12
Перевод: Субтитры (перевод Г. Мирзоевой, Éclair Group)
Cубтитры: русские
Оригинальная аудиодорожка: французский
Режиссер: Джулия Ковальски / Julia KowalskiВ ролях: Луиз Гуверне / Louise Gouverneur, Клементин Билли / Clémentine Billy, Ева Баране / Eva Baranes, Маттье Майтро / Matthieu Maytraud
Описание: Несмотря на явно комедийный жанр, просмотр фильма вызывает определенный дискомфорт – он вторгается в сферу болезненных воспоминаний юности, периода сексуальных экспериментов и осознания власти собственного тела. Фильм об открытии законов сексуальности в переходном возрасте - того, через что все мы, так или иначе, проходили, и что не у всех оставило радостные воспоминания.
12-летняя Роза воспитывается в интернате при музыкальном училище. Она живет в комнате с девочками постарше, где и начинает осознавать появление признаков собственного сексуального восприятия мира.
Женщина-режиссер откровенно говорит о смешанных чувствах: любопытстве, привлекательности неизвестного, страхе и одновременном отвращении. Вуаеризм и восхищение рассказами о прелестях секса более старших девочек, вызывают в Розе страстное желание подражать их раскрепощенному поведению и самой испытать хоть что-либо из "взрослой жизни"…
Доп. информация: Запись со спутника (телеканал TV5MONDE).
Награды: 2 награды Festival Paris Court Devant 2012 (приз TV5 за лучший франкоязычный фильм, Специальный почетный приз жюри). 13 номинаций Festival international du court métrage de Clermont-Ferrand 2012.
Информация: http://www.imdb.com/title/tt2755090/
Сэмпл: http://multi-up.com/894453
Качество видео: DVB
Формат видео: MPEG-PS (См. при проблемах с просмотром видео)
Видео: MPEG Video 2, 720x576@1024x576 (16:9), 25 fps, ~2369 kbps avg, 0.228 bit/pixel
Аудио: Французский (48 kHz, MPEG Audio 2, 2 ch, ~192.00 kbps avg)
Формат субтитров: hardsub (неотключаемые)

MediaInfo

Полное имя : H:\My Torrents\[apreder]MINI_MOVIE_008\[apreder]MM_Musique_de_chambre(2012)DVB.mpgФормат : MPEG-PSРазмер файла : 416 МбайтПродолжительность : 22 м.Режим общего битрейта : ПеременныйОбщий поток : 2613 Кбит/сек
ВидеоИдентификатор : 224 (0xE0)Формат : MPEG VideoВерсия формата : Version 2Профиль формата : Main@MainПараметр BVOP формата : ДаПараметр матрицы формата : ВыборочнаяПараметр GOP формата : M=3, N=24Продолжительность : 22 м.Вид битрейта : ПеременныйБитрейт : 2369 Кбит/секШирина : 720 пикселейВысота : 576 пикселейСоотношение сторон : 16:9Частота кадров : 25,000 кадров/секСтандарт вещания : PALЦветовое пространство : YUVСубдискретизация насыщенности : 4:2:0Битовая глубина : 8 битМетод сжатия : С потерямиБит/(Пиксели*Кадры) : 0.228TimeCode_FirstFrame : 00:00:00:00TimeCode_Source : Group of pictures headerРазмер потока : 377 Мбайт (91%)
АудиоИдентификатор : 192 (0xC0)Формат : MPEG AudioВерсия формата : Version 1Профиль формата : Layer 2Продолжительность : 22 м.Вид битрейта : ПостоянныйБитрейт : 192 Кбит/секКаналы : 2 каналаЧастота : 48,0 КГцМетод сжатия : С потерямиРазмер потока : 30,6 Мбайт (7%)

Скриншот c названием фильма

Скриншоты

Резервные скриншоты

-918/900√
[teatrix.ru].t4092.torrent 
Торрент: Зарегистрирован [ 2015-10-07 12:13 ] · 72018F2ADDB924A9D3A5D8F507718F49B443D704

Скачать .torrent

Скачать

17 KB

Статус: проверено
Скачан: 1 раз
Размер: 416 MB
terms.php



Быстрый ответ

Имя:

      
Для отправки сообщений необходимо включить JavaScript
Показать сообщения:    

Текущее время: 04-Дек 11:15

Часовой пояс: UTC + 3


Вы можете начинать темы
Вы можете отвечать на сообщения
Вы не можете редактировать свои сообщения
Вы не можете удалять свои сообщения
Вы не можете голосовать в опросах
Вы не можете прикреплять файлы к сообщениям
Вы можете скачивать файлы