Последняя женщина / Ultima donna (Тристан Аймон / Tristan Aymon) [2010, Швейцария, драма, комедия, короткий метр, DVB] Original (Fre) + Sub (rus)


Статистика раздачи [Обновить пиров]
Размер:  331 MB   |    Зарегистрирован:  1 год 2 месяца   |    Скачан:  0 раз

Полного источника не было: Никогда

 
   
 
 
 

[Цитировать]

Последняя женщина
Ultima donna- Страна: Швейцария
Жанр: драма, комедия, короткий метр
Год выпуска: 2010
Продолжительность: 00:17:22
Перевод: Субтитры
Cубтитры: русские
Оригинальная аудиодорожка: французский
Режиссер: Тристан Аймон / Tristan AymonВ ролях: Морис Офэр / Maurice Aufair (Dr. Bertoz), Сара Перейра Батиста / Sarah Pereira Batista (Daniela), Стефани Гюнтер / Stefanie Günther (Florence)
Описание: Название фильма выпускника Университета искусства и дизайна Лозанны, выполненное на итальянском языке, отсылает к знаменитой картине Марко Феррери "Последняя женщина" (1976), которую кинокритики в свое время зло окрестили: "Последняя женщина в жизни мужчины".
Авторами этой ленты предлагается философско-комедийный взгляд на извечные противопоставления: старость и юность; грусть осознания бренности тела и радость бытия; желание свободы и зависимость от окружающих; непонимание и взаимность…
Доктору Берто исполнилось 80 лет. Он живет в загородном доме, и его 50-летней дочери Флоранс, энергичной деловой женщине, уже не хватает времени приглядывать за ним. В помощь отцу она нанимает горничную – 22-летнюю португалку Даниелу. Первоначальная неприязнь старика к девушке постепенно сменяется более благосклонным отношением после обнаружения общих интересов – любви к классической музыке. Однако, эволюция отношений не по вкусу Флоранс, которая всячески пытается поставить каждого на свое место…
Доп. информация: Запись со спутника (телеканал TV5MONDE).
Награды: приз Reflet d'Or - Festival Tous Ecrans (Genève) 2010 за лучшую швейцарскую короткометражку; приз River Film Festival 2011 лучшей киношколе; 2 награды Festival Cinéma d'Alès 2011 (Гран-при жюри, Специальный почетный приз студенческого жюри); приз кинопрессы Festival du Film Court francophone (Vaulx-en-Velin) 2012.
Сэмпл: http://multi-up.com/892475
Качество видео: DVB
Формат видео: MPEG-PS
Видео: MPEG Video 2, 720x576@1024x576 (16:9), 25 fps, ~2409 kbps avg, 0.232 bit/pixel
Аудио: Французский (48 kHz, MPEG Audio 2, 2 ch, ~192.00 kbps avg)
Формат субтитров: hardsub (неотключаемые)

MediaInfo

Полное имя : H:\My Torrents\[apreder]MINI_MOVIE_008\[apreder]MM_Ultima_donna(2010)DVB.mpgФормат : MPEG-PSРазмер файла : 331 МбайтПродолжительность : 17 м.Режим общего битрейта : ПеременныйОбщий поток : 2654 Кбит/сек
ВидеоИдентификатор : 224 (0xE0)Формат : MPEG VideoВерсия формата : Version 2Профиль формата : Main@MainПараметр BVOP формата : ДаПараметр матрицы формата : ВыборочнаяПараметр GOP формата : M=3, N=24Продолжительность : 17 м.Вид битрейта : ПеременныйБитрейт : 2409 Кбит/секШирина : 720 пикселейВысота : 576 пикселейСоотношение сторон : 16:9Частота кадров : 25,000 кадров/секСтандарт вещания : PALЦветовое пространство : YUVСубдискретизация насыщенности : 4:2:0Битовая глубина : 8 битТип развёртки : ПрогрессивнаяПорядок развёртки : Верхнее поле первоеМетод сжатия : С потерямиБит/(Пиксели*Кадры) : 0.232TimeCode_FirstFrame : 00:00:00:00TimeCode_Source : Group of pictures headerРазмер потока : 301 Мбайт (91%)
АудиоИдентификатор : 192 (0xC0)Формат : MPEG AudioВерсия формата : Version 1Профиль формата : Layer 2Продолжительность : 17 м.Вид битрейта : ПостоянныйБитрейт : 192 Кбит/секКаналы : 2 каналаЧастота : 48,0 КГцМетод сжатия : С потерямиРазмер потока : 24,0 Мбайт (7%)

Скриншот c названием фильма

Скриншоты

Резервные скриншоты

-907/889√
[teatrix.ru].t4093.torrent 
Торрент: Зарегистрирован [ 2015-10-07 12:13 ] · 77FFB04D42E3F954EFD23AC73123AD4F88D10F01

Скачать .torrent

Скачать

13 KB

Статус: проверено
Скачан: 0 раз
Размер: 331 MB
terms.php



Быстрый ответ

Имя:

      
Для отправки сообщений необходимо включить JavaScript
Показать сообщения:    

Текущее время: 10-Дек 17:41

Часовой пояс: UTC + 3


Вы можете начинать темы
Вы можете отвечать на сообщения
Вы не можете редактировать свои сообщения
Вы не можете удалять свои сообщения
Вы не можете голосовать в опросах
Вы не можете прикреплять файлы к сообщениям
Вы можете скачивать файлы