Энергия и как ее раздобыть / Energy and How to Get It (Роберт Фрэнк / Robert Frank) [1981, США, драма, короткометражка, TVRip] Sub Rus (Severnyj) + original


Статистика раздачи [Обновить пиров]
Размер:  426 MB   |    Зарегистрирован:  1 год 1 месяц   |    Скачан:  1 раз

Полного источника не было: 1 день 17 часов

 
   
 
 
 

[Цитировать]

Энергия и как ее раздобыть / Energy and How to Get It Страна: США
Жанр: драма, короткометражка
Год выпуска: 1981
Продолжительность: 00:29:08
Перевод: Субтитры (Severnyj)
Cубтитры: русские (.srt), немецкие (хардсаб)
Оригинальная аудиодорожка: английский
Режиссер: Роберт Фрэнк / Robert Frank
В ролях: Уильям Берроуз, Агнес Мун, Руди Вурлитцер и др.
Описание: Контркультурная сатира о противостоянии изобретателя и институтов власти. Прототипом, по одной догадке, послужил Никола Тесла, по другой - Вильгельм Райх. Впрочем, можно с уверенностью рассматривать персонажа как собирательный образ.
Уильям Берроуз играет Царя Энергии - некоего политика-монополиста.-За появление релиза выражается благодарность пользователям den904, AlexNever, antigona, Voqkrre, Synoptik-Релиз:

videodemons-Качество видео: TVRip
Формат видео: AVI
Видео: 512x384, 25 fps, 1 955 Kbps
Аудио: 48 kHz, MPEG Layer 3, 1 ch, 77 kbps

Фрагмент субтитров

1
00:00:03,358 --> 00:00:05,946
Энергия и как её раздобыть
2
00:00:06,912 --> 00:00:09,712
Роберт Голка
Изобретатель проекта Тесла
3
00:00:10,568 --> 00:00:13,227
Агнес Мун
Спутница и наблюдатель.
4
00:00:13,992 --> 00:00:17,321
Руди Вурлитцер -
специалист по устранению неисправностей в D.O.E.
5
00:00:17,537 --> 00:00:20,265
Царь Энергии
Уильям Берроуз
6
00:00:21,332 --> 00:00:23,735
Помощник
Джон Джорно
7
00:00:24,075 --> 00:00:26,229
Линн Адамс
Секретарь
8
00:00:26,895 --> 00:00:29,061
Алан Мойл
Агент
9
00:00:29,688 --> 00:00:32,488
Композиторы:
Доктор Джон
Либби Титус
10
00:00:33,487 --> 00:00:36,028
Роберт Дауни
Житель Голливуда
11
00:00:39,218 --> 00:00:41,466
Не думаю, что он разморозит трубы.
12
00:00:42,576 --> 00:00:46,859
Я не думаю, что он создаст шаровую молнию,
и сомневаюсь, что Агнес его трахнет.
13
00:00:46,968 --> 00:00:49,715
Не думаю, что он будет объяснять,
что такое синтез и деление.
14
00:00:51,232 --> 00:00:53,173
Так что тебе это ничего не будет
стоить.
15
00:00:55,115 --> 00:00:57,759
Для тебя это нормально,
но у меня всё по другому.
16
00:00:57,811 --> 00:01:00,779
У меня есть долг. И что мне делать?
17
00:01:01,256 --> 00:01:05,634
Я бы... Я бы вызвал комиссара....
18
00:01:06,588 --> 00:01:12,151
И посмотрим, вдруг он чудом предложит...
выебать Агнес.
19
00:01:13,440 --> 00:01:15,930
Предложит создать шаровую молнию,
разморозить трубы.
20
00:01:17,085 --> 00:01:21,526
И спасти страну в войне с энергией.
Я посвящаю ему это здание.

MediaInfo

General
Complete name : C:\Energy_and_How_to_Get_It_1981\Energy_and_How_to_Get_It_1981.avi
Format : AVI
Format/Info : Audio Video Interleave
File size : 426 MiB
Duration : 29mn 8s
Overall bit rate : 2 046 Kbps
Writing application : VirtualDubMod 1.5.10.1 (build 2366/release)
Writing library : VirtualDubMod build 2366/release
Video
ID : 0
Format : MPEG-4 Visual
Format profile : Advanced Simple@L5
Format settings, BVOP : 1
Format settings, QPel : No
Format settings, GMC : No warppoints
Format settings, Matrix : Custom
Codec ID : XVID
Codec ID/Hint : XviD
Duration : 29mn 8s
Bit rate : 1 955 Kbps
Width : 512 pixels
Height : 384 pixels
Display aspect ratio : 4:3
Frame rate : 25.000 fps
Color space : YUV
Chroma subsampling : 4:2:0
Bit depth : 8 bits
Scan type : Progressive
Compression mode : Lossy
Bits/(Pixel*Frame) : 0.398
Stream size : 408 MiB (96%)
Writing library : XviD 1.2.0SMP (UTC 2006-01-08)
Audio
ID : 1
Format : MPEG Audio
Format version : Version 1
Format profile : Layer 3
Codec ID : 55
Codec ID/Hint : MP3
Duration : 29mn 8s
Bit rate mode : Variable
Bit rate : 77.3 Kbps
Channel(s) : 1 channel
Sampling rate : 48.0 KHz
Compression mode : Lossy
Stream size : 16.2 MiB (4%)
Alignment : Aligned on interleaves
Interleave, duration : 24 ms (0.60 video frame)
Interleave, preload duration : 486 ms

Скриншоты

[teatrix.ru].t4094.torrent 
Торрент: Зарегистрирован [ 2015-10-07 12:13 ] · B05481E82B34EE50EAEE70CF0394044D83D79B22

Скачать .torrent

Скачать

17 KB

Статус: проверено
Скачан: 1 раз
Размер: 426 MB
terms.php



Быстрый ответ

Имя:

      
Для отправки сообщений необходимо включить JavaScript
Показать сообщения:    

Текущее время: 04-Дек 13:16

Часовой пояс: UTC + 3


Вы можете начинать темы
Вы можете отвечать на сообщения
Вы не можете редактировать свои сообщения
Вы не можете удалять свои сообщения
Вы не можете голосовать в опросах
Вы не можете прикреплять файлы к сообщениям
Вы можете скачивать файлы