Солнце / Soleil (Пьер Клеманти / Pierre Clementi / Pierre Clémenti) [1988, Франция, философское эссе, драма, короткий метр, DVDRip] VO + Original (Fre)


Статистика раздачи [Обновить пиров]
Размер:  218 MB   |    Зарегистрирован:  1 год 1 месяц   |    Скачан:  0 раз

Полного источника не было: Никогда

 
   
 
 
 

[Цитировать]

Солнце
Soleil- Страна: Франция
Жанр: философское эссе, драма, короткий метр
Год выпуска: 1988
Продолжительность: 00:15:57
Перевод: Одноголосый закадровый (ralf124c41+)
Cубтитры: нет
Оригинальная аудиодорожка: французский
Режиссер: Пьер Клеманти / Pierre ClémentiВ ролях: Пьер Клеманти / Pierre Clémenti, Рози Клеманти / Rose Clémenti, Маргарет Клеманти / Margareth Clémenti, Бальтазар Клеманти / Balthazar Clémenti, Джудит Малина / Judith Malina
Описание: В этом автобиографическом поэтическом эссе о любви и смерти, смысле жизни и осознании своего места в мире, ставшем последней режиссерской работой Клеманти, автор ставит все точки над "i", разбирая свою жизнь по фрагментам и выделяя 4 этапа взросления.
Первая часть – арест Клеманти итальянской полицией в 1971 году за хранение и употребление наркотиков и последующее 17-месячное заключение, из которого он был освобожден за отсутствием состава преступления.
Вторая часть состоит из воспоминаний прежних дней, его лучших лет жизни, о которых он думает, вернувшись в Париж, где присутствует молодость, полная идеалов и иллюзий.
Третья часть показывает современный мир, в котором царит бездушие и несправедливость.
В заключительной части Клеманти обращается к сыну, в котором видит свое отражение, давая ему последние наставления.
Пьер Клеманти умер в возрасте 57 лет от рака печени, оставив нам уникальные видеодневники своей жизни, отражающие характерные черты того времени. Он был одной из самых харизматичных фигур контркультуры 60-70-х годов, а его работы отличаются самым безжалостным радикализмом.-Пьер Клеманти (1942-1999) - французский актёр, режиссер, оператор, продюсер, композитор, писатель. Самая известная роль в кино — в фильме Луиса Бунюэля "Дневная красавица" (1967). Играл также в фильмах Лукино Висконти ("Леопард", 1963), Пьера Паоло Пазолини ("Свинарник", 1969), Бернардо Бертолуччи ("Партнёр", 1968, "Конформист", 1971), Душана Макавеева ("Сладкий фильм", 1974), Луиса Бунюэля ("Млечный путь", 1968), Мишеля Девиля ("Бенжамен, или Дневник девственника", 1968). Снял несколько независимых фильмов.-Фильмы Пьера Клеманти-Доп. информация: На территории РФ возрастное ограничение 18+. Файл получен через groups.yahoo. Сделаны собственные перевод и озвучка.
Благодарность: Asia & Christophe Daoudal - за английские субтитры, положенные в основу перевода.
Информация: http://www.imdb.com/title/tt1176232/
Сэмпл: http://multi-up.com/889141
Качество видео: DVDRip
Формат видео: AVI
Видео: XviD, 704x528 (1.33:1), 25 fps, ATI YVU12 4:2:0 Planar ~1510 kbps avg, 0.162 bit/pixel
Аудио 1: Русский 48 kHz, AC3 Dolby Digital, 2/0 (L,R) ch, ~192 kbps
Аудио 2: Французский 48 kHz, AC3 Dolby Digital, 2/0 (L,R) ch, ~192 kbps

MediaInfo

Полное имя : H:\My Torrents\[apreder]Soleil(1988)DVDRip.aviФормат : AVIФормат/Информация : Audio Video InterleaveРазмер файла : 218 МбайтПродолжительность : 15 м.Общий поток : 1908 Кбит/секПрограмма кодирования : VirtualDubMod 1.5.10.3 | www.virtualdub-fr.org || (build 2550/release)Библиотека кодирования : VirtualDubMod build 2550/release
ВидеоИдентификатор : 0Формат : MPEG-4 VisualПрофиль формата : Advanced Simple@L5Параметр BVOP формата : 2Параметр QPel формата : НетПараметр GMC формата : Без точки переходаПараметр матрицы формата : Default (H.263)Идентификатор кодека : XVIDИдентификатор кодека/Подсказка : XviDПродолжительность : 15 м.Битрейт : 1510 Кбит/секШирина : 704 пикселяВысота : 528 пикселейСоотношение сторон : 2,000Соотношение сторон в оригинале : 4:3Частота кадров : 25,000 кадров/секЦветовое пространство : YUVСубдискретизация насыщенности : 4:2:0Битовая глубина : 8 битТип развёртки : ПрогрессивнаяМетод сжатия : С потерямиБит/(Пиксели*Кадры) : 0.162Размер потока : 172 Мбайт (79%)Библиотека кодирования : XviD 64
Аудио #1Идентификатор : 1Формат : AC-3Формат/Информация : Audio Coding 3Расширение режима : CM (complete main)Параметр Endianness формата : BigИдентификатор кодека : 2000Продолжительность : 15 м.Вид битрейта : ПостоянныйБитрейт : 192 Кбит/секКаналы : 2 каналаРасположение каналов : Front: L RЧастота : 48,0 КГцБитовая глубина : 16 битМетод сжатия : С потерямиРазмер потока : 21,9 Мбайт (10%)Выравнивание : Разделение по промежуткамПродолжительность промежутка : 40 мс. (1,00 видеокадр)Время предзагрузки промежутка : 500 мс.
Аудио #2Идентификатор : 2Формат : AC-3Формат/Информация : Audio Coding 3Расширение режима : CM (complete main)Параметр Endianness формата : BigИдентификатор кодека : 2000Продолжительность : 15 м.Вид битрейта : ПостоянныйБитрейт : 192 Кбит/секКаналы : 2 каналаРасположение каналов : Front: L RЧастота : 48,0 КГцБитовая глубина : 16 битМетод сжатия : С потерямиРазмер потока : 21,9 Мбайт (10%)Выравнивание : Разделение по промежуткамПродолжительность промежутка : 40 мс. (1,00 видеокадр)Время предзагрузки промежутка : 500 мс.

Скриншот c названием фильма

Скриншоты


Резервные скриншоты


-882/864√
[teatrix.ru].t4095.torrent 
Торрент: Зарегистрирован [ 2015-10-07 12:13 ] · F24413D3485F8C437C0E184FA82E0A6B86F76D90

Скачать .torrent

Скачать

18 KB

Статус: проверено
Скачан: 0 раз
Размер: 218 MB
terms.php



Быстрый ответ

Имя:

      
Для отправки сообщений необходимо включить JavaScript
Показать сообщения:    

Текущее время: 05-Дек 03:27

Часовой пояс: UTC + 3


Вы можете начинать темы
Вы можете отвечать на сообщения
Вы не можете редактировать свои сообщения
Вы не можете удалять свои сообщения
Вы не можете голосовать в опросах
Вы не можете прикреплять файлы к сообщениям
Вы можете скачивать файлы