Побег / Пока все не потеряешь / Avant que de tout perdre (Ксавье Легран / Xavier Legrand) [2012, Франция, Драма, короткий метр, DVB] VO + Sub Rus + Original Fre


Статистика раздачи [Обновить пиров]
Размер:  574 MB   |    Зарегистрирован:  1 год 1 месяц   |    Скачан:  0 раз

Полного источника не было: Никогда

 
   
 
 
 

[Цитировать]

Побег / Пока все не потеряешь / Avant que de tout perdre
Страна: Франция
Жанр: Драма, короткий метр
Год выпуска: 2012
Продолжительность: 00:29:02
Перевод: Одноголосый закадровый
Cубтитры: русские
Оригинальная аудиодорожка: французский
Режиссер: Ксавье Легран / Xavier Legrand
В ролях: Леа Дрюкер / Léa Drucker (Miriam), Анн Бенуа / Anne Benoît (Gaëlle), Мильян Шатлен / Miljan Chatelain (Julien), Матильда Онево / Mathilde Auneveux (Joséphine), Дени Меноше / Denis Ménochet (Antoine), Клер Дюма / Claire Dumas (Sophie), Стефан Шукрун / Stéphane Shoukroun (Didier)
Описание: Бескомпромиссный фильм о бытовом насилии. Молодая женщина с двумя детьми сбегает от мужа, которого боится и жестокость которого уже не в силах выносить.
Доп. информация: 4 награды Clermont-Ferrand International Short Film Festival 2013 (Гран-при жюри, приз Зрительских симпатий, молодежная премия, приз кинопрессы Télérama) + 9 номинаций.
Сэмпл: http://multi-up.com/888330
Качество видео: DVB
Формат видео: MKV
Видео: MPEG Video at 2317 Кбит/сек: 720x576@1024x576 (16:9), 25 fps
Аудио 1: MPEG Audio at 192 Кбит/сек : 2 канала, 48,0 КГц Language : ru
Аудио 2: MPEG Audio at 192 Кбит/сек : 2 канала, 48,0 КГц Language : fr
Формат субтитров: hardsub (неотключаемые)
Доп. информация о субтитрах: (перевод К. Семенюк, Éclair Group)

MediaInfo

Общее
Уникальный идентификатор : 226306360093068897212183985813886335822 (0xAA41050148DEC9989E4BA9F431D7FB4E)
Полное имя : D:\Мои видеозаписи\Побег.mkv
Формат : Matroska
Версия формата : Version 4 / Version 2
Размер файла : 574 Мбайт
Продолжительность : 29 м.
Режим общего битрейта : Переменный
Общий поток : 2756 Кбит/сек
Дата кодирования : UTC 2013-07-26 18:35:39
Программа кодирования : mkvmerge v6.1.0 ('Old Devil') built on Mar 4 2013 09:10:42
Библиотека кодирования : libebml v1.3.0 + libmatroska v1.4.0
Видео
Идентификатор : 1
Формат : MPEG Video
Версия формата : Version 2
Профиль формата : Main@Main
Параметр BVOP формата : Нет
Параметр матрицы формата : Выборочная
Идентификатор кодека : V_MPEG2
Идентификатор кодека/Информация : MPEG 1 or 2 Video
Продолжительность : 29 м.
Вид битрейта : Переменный
Битрейт : 2317 Кбит/сек
Ширина : 720 пикселей
Высота : 576 пикселей
Соотношение сторон : 16:9
Частота кадров : 50,000 кадров/сек
Частота кадров в оригинале : 25,000 кадров/сек
Стандарт вещания : PAL
Цветовое пространство : YUV
Субдискретизация насыщенности : 4:2:0
Битовая глубина : 8 бит
Тип развёртки : Прогрессивная
Порядок развёртки : Верхнее поле первое
Метод сжатия : С потерями
Бит/(Пиксели*Кадры) : 0.112
Размер потока : 482 Мбайт (84%)
Default : Да
Forced : Нет
Аудио #1
Идентификатор : 2
Формат : MPEG Audio
Версия формата : Version 1
Профиль формата : Layer 3
Режим : Joint stereo
Идентификатор кодека : A_MPEG/L3
Идентификатор кодека/Подсказка : MP3
Продолжительность : 29 м.
Вид битрейта : Постоянный
Битрейт : 192 Кбит/сек
Каналы : 2 канала
Частота : 48,0 КГц
Метод сжатия : С потерями
Размер потока : 40,0 Мбайт (7%)
Язык : Russian
Default : Да
Forced : Да
Аудио #2
Идентификатор : 3
Формат : MPEG Audio
Версия формата : Version 1
Профиль формата : Layer 2
Идентификатор кодека : A_MPEG/L2
Идентификатор кодека/Подсказка : MP2
Продолжительность : 29 м.
Вид битрейта : Постоянный
Битрейт : 192 Кбит/сек
Каналы : 2 канала
Частота : 48,0 КГц
Метод сжатия : С потерями
Размер потока : 40,0 Мбайт (7%)
Язык : French
Default : Нет
Forced : Нет

Скриншоты

[teatrix.ru].t4096.torrent 
Торрент: Зарегистрирован [ 2015-10-07 12:13 ] · E56CCC931E0569CF593A97EC89DED4F6332C17

Скачать .torrent

Скачать

12 KB

Статус: проверено
Скачан: 0 раз
Размер: 574 MB
terms.php



Быстрый ответ

Имя:

      
Для отправки сообщений необходимо включить JavaScript
Показать сообщения:    

Текущее время: 05-Дек 01:24

Часовой пояс: UTC + 3


Вы можете начинать темы
Вы можете отвечать на сообщения
Вы не можете редактировать свои сообщения
Вы не можете удалять свои сообщения
Вы не можете голосовать в опросах
Вы не можете прикреплять файлы к сообщениям
Вы можете скачивать файлы