Побег / Пока все не потеряешь / Avant que de tout perdre (Ксавье Легран / Xavier Legrand) [2012, Франция, драма, короткий метр, DVB] Original (Fre) + Sub (rus)


Статистика раздачи [Обновить пиров]
Размер:  549 MB   |    Зарегистрирован:  1 год 3 месяца   |    Скачан:  0 раз

Полного источника не было: Никогда

 
   
 
 
 

[Цитировать]

Побег
Avant que de tout perdre- Страна: Франция
Жанр: драма, короткий метр
Год выпуска: 2012
Продолжительность: 00:29:02
Перевод: Субтитры (перевод К. Семенюк, Éclair Group)
Cубтитры: русские
Оригинальная аудиодорожка: французский
Режиссер: Ксавье Легран / Xavier LegrandВ ролях: Леа Дрюкер / Léa Drucker (Miriam), Анн Бенуа / Anne Benoît (Gaëlle), Мильян Шатлен / Miljan Chatelain (Julien), Матильда Онево / Mathilde Auneveux (Joséphine), Дени Меноше / Denis Ménochet (Antoine), Клер Дюма / Claire Dumas (Sophie), Стефан Шукрун / Stéphane Shoukroun (Didier)
Описание: Бескомпромиссный фильм о бытовом насилии. Молодая женщина с двумя детьми сбегает от мужа, которого боится и жестокость которого уже не в силах выносить.
Доп. информация: Запись со спутника (канал TV5MONDE).
Награды: 4 награды Clermont-Ferrand International Short Film Festival 2013 (Гран-при жюри, приз Зрительских симпатий, молодежная премия, приз кинопрессы Télérama) + 9 номинаций.
Информация: http://www.imdb.com/title/tt2689992
Сэмпл: http://multi-up.com/882496
Качество видео: DVB
Формат видео: MPEG-PS (См. при проблемах с просмотром видео)
Видео: MPEG Video 2, 720x576@1024x576 (16:9), 25 fps, ~2391 kbps avg, 0.231 bit/pixel
Аудио: Французский (48 kHz, MPEG Audio 2, 2 ch, ~192.00 kbps avg)
Формат субтитров: hardsub (неотключаемые)

MediaInfo

Полное имя : H:\My Torrents\[apreder]MINI_MOVIE_008\[apreder]MM_Avant_que_de_tout_perdre(2012)DVB.mpgФормат : MPEG-PSРазмер файла : 549 МбайтПродолжительность : 29 м.Режим общего битрейта : ПеременныйОбщий поток : 2636 Кбит/сек
ВидеоИдентификатор : 224 (0xE0)Формат : MPEG VideoВерсия формата : Version 2Профиль формата : Main@MainПараметр BVOP формата : ДаПараметр матрицы формата : ВыборочнаяПараметр GOP формата : M=3, N=24Продолжительность : 29 м.Вид битрейта : ПеременныйБитрейт : 2391 Кбит/секШирина : 720 пикселейВысота : 576 пикселейСоотношение сторон : 16:9Частота кадров : 25,000 кадров/секСтандарт вещания : PALЦветовое пространство : YUVСубдискретизация насыщенности : 4:2:0Битовая глубина : 8 битТип развёртки : ПрогрессивнаяПорядок развёртки : Верхнее поле первоеМетод сжатия : С потерямиБит/(Пиксели*Кадры) : 0.231TimeCode_FirstFrame : 00:00:00:00TimeCode_Source : Group of pictures headerРазмер потока : 498 Мбайт (91%)
АудиоИдентификатор : 192 (0xC0)Формат : MPEG AudioВерсия формата : Version 1Профиль формата : Layer 2Продолжительность : 29 м.Вид битрейта : ПостоянныйБитрейт : 192 Кбит/секКаналы : 2 каналаЧастота : 48,0 КГцМетод сжатия : С потерямиРазмер потока : 40,0 Мбайт (7%)

Скриншот c названием фильма

Скриншоты

Резервные скриншоты

-841/823√
[teatrix.ru].t4098.torrent 
Торрент: Зарегистрирован [ 2015-10-07 12:13 ] · 16D38994A1889EC50C00A543F04C15DC814E4B35

Скачать .torrent

Скачать

11 KB

Статус: проверено
Скачан: 0 раз
Размер: 549 MB
terms.php



Быстрый ответ

Имя:

      
Для отправки сообщений необходимо включить JavaScript
Показать сообщения:    

Текущее время: 20-Янв 16:55

Часовой пояс: UTC + 3


Вы можете начинать темы
Вы можете отвечать на сообщения
Вы не можете редактировать свои сообщения
Вы не можете удалять свои сообщения
Вы не можете голосовать в опросах
Вы не можете прикреплять файлы к сообщениям
Вы можете скачивать файлы