Роналду / Ronaldo (Ян Меттлер / Jan Mettler, Ян-Эрик Мак / Jan-Eric Mack) [2010, Швейцария, спортивная комедия, короткий метр, DVB] Original (Por) + Sub (rus)


Статистика раздачи [Обновить пиров]
Размер:  111 MB   |    Зарегистрирован:  1 год 1 месяц   |    Скачан:  0 раз

Полного источника не было: Никогда

 
   
 
 
 

[Цитировать]

Роналду
Ronaldo- Страна: Швейцария
Жанр: спортивная комедия, короткий метр
Год выпуска: 2010
Продолжительность: 00:05:42
Перевод: Субтитры (modernist_m)
Cубтитры: русские
Оригинальная аудиодорожка: португальскийРежиссер: Ян Меттлер / Jan Mettler, Ян-Эрик Мак / Jan-Eric Mack
В ролях: Патрик Перейра да Коста / Patrick Pereira Da Costa (Patrick)
Описание: Мальчик мечтает стать великим футболистом, таким как португалец Криштиану Роналду (Cristiano Ronaldo), выступавший под седьмым номером за испанский клуб "Реал Мадрид" и сборную Португалии. Однажды утром он выходит во двор и представляет, что попал на стадион, где встречает неожиданного соперника.
Доп. информация: Запись со спутника (канал TV5MONDE). В фильме нет диалогов, в конце звучит всего одна фраза.
Награды: награда Международного фестиваля ВГИК (Москва) 2010 за лучшую студенческую работу; Серебряный приз Internationales Fussballfilmfestival 2011 в секции короткометражных фильмов; Специальный почетный приз Festival di cortometraggi Cortisonici (Varese) 2011; приз лучшему режиссеру-дебютанту Solothurner Filmtage (Schweiz) 2011.
Информация: http://www.imdb.com/title/tt2997310/
Сэмпл: http://multi-up.com/882469
Качество видео: DVB
Формат видео: MPEG-PS (См. при проблемах с просмотром видео)
Видео: MPEG Video 2, 720x576@1024x576 (16:9), 25 fps, ~2445 kbps avg, 0.236 bit/pixel
Аудио: Немецкий (48 kHz, MPEG Audio 2, 2 ch, ~192.00 kbps avg)
Формат субтитров: softsub (SRT)

Субтитры

100:00:04,312 --> 00:00:08,251РОНАЛДУ
200:04:17,410 --> 00:04:20,066Патрик, хватит дурака валять.
300:04:20,167 --> 00:04:23,440Что я тебе сказала, иди домой.
400:04:44,464 --> 00:04:46,525Патрик Перейра Да Костав роли себя самого.
500:04:46,626 --> 00:04:52,940РежиссерыЯн Меттлер и Ян-Эрик Мак

MediaInfo

Полное имя : H:\My Torrents\[apreder]MINI_MOVIE_008\[apreder]MM_Ronaldo(2010)DVB\[apreder]MM_Ronaldo(2010)DVB.mpgФормат : MPEG-PSРазмер файла : 111 МбайтПродолжительность : 5 м. 45 с.Режим общего битрейта : ПеременныйОбщий поток : 2690 Кбит/сек
ВидеоИдентификатор : 224 (0xE0)Формат : MPEG VideoВерсия формата : Version 2Профиль формата : Main@MainПараметр BVOP формата : ДаПараметр матрицы формата : ВыборочнаяПараметр GOP формата : M=3, N=24Продолжительность : 5 м. 45 с.Вид битрейта : ПеременныйБитрейт : 2445 Кбит/секШирина : 720 пикселейВысота : 576 пикселейСоотношение сторон : 16:9Частота кадров : 25,000 кадров/секСтандарт вещания : PALЦветовое пространство : YUVСубдискретизация насыщенности : 4:2:0Битовая глубина : 8 битТип развёртки : ПрогрессивнаяПорядок развёртки : Верхнее поле первоеМетод сжатия : С потерямиБит/(Пиксели*Кадры) : 0.236TimeCode_FirstFrame : 00:00:00:00TimeCode_Source : Group of pictures headerРазмер потока : 101 Мбайт (91%)
АудиоИдентификатор : 192 (0xC0)Формат : MPEG AudioВерсия формата : Version 1Профиль формата : Layer 2Продолжительность : 5 м. 45 с.Вид битрейта : ПостоянныйБитрейт : 192 Кбит/секКаналы : 2 каналаЧастота : 48,0 КГцМетод сжатия : С потерямиРазмер потока : 7,91 Мбайт (7%)

Скриншот c названием фильма

Скриншоты

Резервные скриншоты

-840/822√
[teatrix.ru].t4099.torrent 
Торрент: Зарегистрирован [ 2015-10-07 12:13 ] · 48E6C2EA88AA287454F948F67373F66931895AA2

Скачать .torrent

Скачать

18 KB

Статус: проверено
Скачан: 0 раз
Размер: 111 MB
terms.php



Быстрый ответ

Имя:

      
Для отправки сообщений необходимо включить JavaScript
Показать сообщения:    

Текущее время: 03-Дек 05:26

Часовой пояс: UTC + 3


Вы можете начинать темы
Вы можете отвечать на сообщения
Вы не можете редактировать свои сообщения
Вы не можете удалять свои сообщения
Вы не можете голосовать в опросах
Вы не можете прикреплять файлы к сообщениям
Вы можете скачивать файлы