Конец / The End / Si vous mettez l\'affect de cote / Si vous mettez l\'affect de côté (Дидье Барсело / Didier Barcelo) [2011, Франция, трагикомедия, короткий метр, DVB] Original (Fre) + Sub (rus)


Статистика раздачи [Обновить пиров]
Размер:  322 MB   |    Зарегистрирован:  1 год 2 месяца   |    Скачан:  0 раз

Полного источника не было: Никогда

 
   
 
 
 

[Цитировать]

Конец
The End- Страна: Франция
Жанр: трагикомедия, короткий метр
Год выпуска: 2011
Продолжительность: 00:16:11
Перевод: Субтитры (перевод И. Рыбкиной, Éclair Group)
Cубтитры: русские
Оригинальная аудиодорожка: французский
Режиссер: Дидье Барсело / Didier BarceloВ ролях: Шарлотта Рэмплинг / Charlotte Rampling, Жерар Дармон / Gérard Darmon, Жеральдин Накаш / Géraldine Nakache, Мишель Серро / Michel Serrault (Archive)
Описание: Восхитительный фильм о памяти. Памяти о великолепных актерах прошлого, которые со временем исчезают из исторического сознания новых поколений, потому что, отдавая дань сиюминутной моде, новые продюсеры перемонтируют старые фильмы, вплоть до того, что заменяют в них старые персонажи на новые, а старых актеров на выглядящих более современно…
Доп. информация: Запись со спутника (канал TV5MONDE).
Награды: номинация на "Золотой медведь" Berlin International Film Festival 2012 за лучший короткометражный фильм; Специальный приз кинокритиков фестиваля "Послание к человечеству" (Санкт-Петербург) 2012.
Информация: http://www.imdb.com/title/tt2199649/
Сэмпл: http://multi-up.com/877260
Качество видео: DVB
Формат видео: MPEG-PS (См. при проблемах с просмотром видео)
Видео: MPEG Video 2, 720x576@1024x576 (16:9), 25 fps, ~2529 kbps avg, 0.244 bit/pixel
Аудио: Французский (48 kHz, MPEG Audio 2, 2 ch, ~192.00 kbps avg)
Формат субтитров: hardsub (неотключаемые)

MediaInfo

Полное имя : H:\My Torrents\[apreder]MINI_MOVIE_008\[apreder]MM_The_End(2011)DVB.mpgФормат : MPEG-PSРазмер файла : 322 МбайтПродолжительность : 16 м.Режим общего битрейта : ПеременныйОбщий поток : 2776 Кбит/сек
ВидеоИдентификатор : 224 (0xE0)Формат : MPEG VideoВерсия формата : Version 2Профиль формата : Main@MainПараметр BVOP формата : ДаПараметр матрицы формата : ВыборочнаяПараметр GOP формата : M=3, N=24Продолжительность : 16 м.Вид битрейта : ПеременныйБитрейт : 2529 Кбит/секШирина : 720 пикселейВысота : 576 пикселейСоотношение сторон : 16:9Частота кадров : 25,000 кадров/секСтандарт вещания : PALЦветовое пространство : YUVСубдискретизация насыщенности : 4:2:0Битовая глубина : 8 битТип развёртки : ПрогрессивнаяПорядок развёртки : Верхнее поле первоеМетод сжатия : С потерямиБит/(Пиксели*Кадры) : 0.244TimeCode_FirstFrame : 00:00:00:00TimeCode_Source : Group of pictures headerРазмер потока : 294 Мбайт (91%)
АудиоИдентификатор : 192 (0xC0)Формат : MPEG AudioВерсия формата : Version 1Профиль формата : Layer 2Продолжительность : 16 м.Вид битрейта : ПостоянныйБитрейт : 192 Кбит/секКаналы : 2 каналаЧастота : 48,0 КГцМетод сжатия : С потерямиРазмер потока : 22,3 Мбайт (7%)

Скриншот c названием фильма

Скриншоты

Скриншоты анаморфированные

-800/782√
[teatrix.ru].t4100.torrent 
Торрент: Зарегистрирован [ 2015-10-07 12:13 ] · A79C4A3936477CFA1CD35E5F1E9267AA11C9D129

Скачать .torrent

Скачать

13 KB

Статус: проверено
Скачан: 0 раз
Размер: 322 MB
terms.php



Быстрый ответ

Имя:

      
Для отправки сообщений необходимо включить JavaScript
Показать сообщения:    

Текущее время: 09-Дек 20:29

Часовой пояс: UTC + 3


Вы можете начинать темы
Вы можете отвечать на сообщения
Вы не можете редактировать свои сообщения
Вы не можете удалять свои сообщения
Вы не можете голосовать в опросах
Вы не можете прикреплять файлы к сообщениям
Вы можете скачивать файлы