Моя последняя роль / Mon dernier role (Оливье Айаше-Видаль / Olivier Ayache-Vidal) [2006, Франция, короткий метр, черный юмор, SATRip] + Sub Rus + Original Fre


Статистика раздачи [Обновить пиров]
Размер:  216 MB   |    Зарегистрирован:  1 год 1 месяц   |    Скачан:  0 раз

Полного источника не было: Никогда

 
   
 
 
 

[Цитировать]

Моя последняя роль / Mon dernier role
Страна: Франция
Жанр: короткий метр, черный юмор
Год выпуска: 2006
Продолжительность: 00:14:26
Перевод: Субтитры
Cубтитры: русские
Оригинальная аудиодорожка: французский
Режиссер: Оливье Айаше-Видаль / Olivier Ayache-Vidal
В ролях: Патрик Шене / Patrick Chesnais, Жан-Клод Бриали / Jean-Claude Brialy, Николь Гарсиа / Nicole Garcia, Патрик Поивр д'Арвор / Patrick Poivre d'Arvor, Давид Пуйада / David Pujadas
Описание: Актер Патрик Шене последние годы проводит без работы. Для завершения своей карьеры, он решает сыграть свою последнюю роль, сделав ее самой громкой...
Доп. информация:
Релиз
КАК ВСЕГДА БОЛЬШОЕ СПАСИБО:
Рип Animat
Перевод М.Кузиной
Субтитры Animat, grafd

Качество видео: SATRip
Формат видео: AVI
Видео: 720x400 (1.80:1), 25 fps, XviD MPEG-4 ~1955 kbps avg, 0.27 bit/pixel
Аудио: 48 kHz, MPEG Layer 3, 2 ch, ~128.00 kbps avg - Французский
Формат субтитров: softsub (SRT)

Субтитры

98
00:07:09,310 --> 00:07:11,119
Он был великим актером.
99
00:07:11,270 --> 00:07:13,876
Когда я думаю,
что он покончил с собой...
100
00:07:14,030 --> 00:07:15,635
Такая смерть...
101
00:07:16,630 --> 00:07:18,394
Я глубоко потрясен.
102
00:07:35,310 --> 00:07:36,278
Нет. Прекрати.
103
00:07:36,430 --> 00:07:39,753
Зачем ты так говоришь?
Ты же знаешь, что это не так.
104
00:07:40,670 --> 00:07:43,356
Там ванна протекает.
105
00:07:43,510 --> 00:07:44,955
- Понятно.
- Извините.
106
00:07:46,030 --> 00:07:47,111
Да. Алло!
107
00:07:47,750 --> 00:07:50,959
Подумаешь, миллион. Чепуха.
Виллу оставь себе.
108
00:07:51,670 --> 00:07:53,991
Да я вообще
с этой девицей не знаком!
109
00:07:54,830 --> 00:07:58,471
И не видел ее никогда. Клянусь.
Это все журналистские домыслы.

MediaInfo

General
Complete name : D:\Раздачи\Mon.Dernier.Role.2006.FR.SATrip.Animat.fenixclub.avi
Format : AVI
Format/Info : Audio Video Interleave
File size : 216 MiB
Duration : 14mn 26s
Overall bit rate : 2 093 Kbps
Director : SATrip by Animat (fenixclub.com)
Writing library : VirtualDub build 32842/release
Video
ID : 0
Format : MPEG-4 Visual
Format profile : Advanced Simple@L5
Format settings, BVOP : 2
Format settings, QPel : No
Format settings, GMC : No warppoints
Format settings, Matrix : Default (MPEG)
Muxing mode : Packed bitstream
Codec ID : XVID
Codec ID/Hint : XviD
Duration : 14mn 26s
Bit rate : 1 955 Kbps
Width : 720 pixels
Height : 400 pixels
Display aspect ratio : 16:9
Frame rate : 25.000 fps
Color space : YUV
Chroma subsampling : 4:2:0
Bit depth : 8 bits
Scan type : Progressive
Compression mode : Lossy
Bits/(Pixel*Frame) : 0.272
Stream size : 202 MiB (93%)
Writing library : XviD 64
Audio
ID : 1
Format : MPEG Audio
Format version : Version 1
Format profile : Layer 3
Mode : Joint stereo
Mode extension : MS Stereo
Codec ID : 55
Codec ID/Hint : MP3
Duration : 14mn 26s
Bit rate mode : Constant
Bit rate : 128 Kbps
Channel(s) : 2 channels
Sampling rate : 48.0 KHz
Compression mode : Lossy
Stream size : 13.2 MiB (6%)
Alignment : Split accross interleaves
Interleave, duration : 40 ms (1.00 video frame)
Interleave, preload duration : 500 ms

Скриншоты

[teatrix.ru].t4101.torrent 
Торрент: Зарегистрирован [ 2015-10-07 12:13 ] · DB49F4FED03076EFFFB2C9F99DB03BD3EC682CBE

Скачать .torrent

Скачать

18 KB

Статус: проверено
Скачан: 0 раз
Размер: 216 MB
terms.php



Быстрый ответ

Имя:

      
Для отправки сообщений необходимо включить JavaScript
Показать сообщения:    

Текущее время: 04-Дек 09:05

Часовой пояс: UTC + 3


Вы можете начинать темы
Вы можете отвечать на сообщения
Вы не можете редактировать свои сообщения
Вы не можете удалять свои сообщения
Вы не можете голосовать в опросах
Вы не можете прикреплять файлы к сообщениям
Вы можете скачивать файлы