Закрой дверь / Døren som ikke smakk / Shut the Door (Йенс Лиен / Jens Lien) [2000, Норвегия, короткий метр, DVDRip] + Sub Rus + Original Nor


Статистика раздачи [Обновить пиров]
Размер:  120 MB   |    Зарегистрирован:  1 год 2 месяца   |    Скачан:  0 раз

Полного источника не было: Никогда

 
   
 
 
 

[Цитировать]

Закрой дверь / Døren som ikke smakk / Shut the Door- Страна: Норвегия
Жанр: короткий метр
Год выпуска: 2000
Продолжительность: 00:10:06
Перевод: субтитры
Cубтитры: русские (Hurin)
Оригинальная аудиодорожка: норвежский-Режиссер: Йенс Лиен / Jens Lien ("Неуместный человек")
В ролях: Тронд Эурвог, Свейн Амундсен, Клара Дёвинг, Селин Энгебригтсен и др.-Описание: Молодой человек живёт со своей матерью, но однажды она заболевает и на следующий день умирает. Молодой человек остаётся жить в квартире один, но дверь в неё оказывается сломана и не закрывается. Это значит, он должен научиться справляться с появлением незваных людей и переменами в своей жизни.-Качество видео: DVDRip
Формат видео: AVI
Видео: XviD, 704х384 (16:9), 25.000 fps, 1 519 Kbps
Аудио: MP3, 48.0 KHz, ~ 128 Kbps (variable), 2 channels
Формат субтитров: softsub (SRT)

MediaInfo

General
Complete name : D:\
Format : AVI
Format/Info : Audio Video Interleave
File size : 120 MiB
Duration : 10mn 6s
Overall bit rate : 1 654 Kbps
Writing application : VirtualDubMod 1.5.10.2 (build 2540/release)
Writing library : VirtualDubMod build 2540/release
Video
ID : 0
Format : MPEG-4 Visual
Format profile : Advanced Simple@L5
Format settings, BVOP : Yes
Format settings, QPel : No
Format settings, GMC : No warppoints
Format settings, Matrix : Default (MPEG)
Codec ID : XVID
Codec ID/Hint : XviD
Duration : 10mn 6s
Bit rate : 1 519 Kbps
Width : 704 pixels
Height : 384 pixels
Display aspect ratio : 16:9
Frame rate : 25.000 fps
Resolution : 8 bits
Colorimetry : 4:2:0
Scan type : Progressive
Bits/(Pixel*Frame) : 0.225
Stream size : 110 MiB (92%)
Writing library : XviD 1.1.0 (UTC 2005-11-22)
Audio
ID : 1
Format : MPEG Audio
Format version : Version 1
Format profile : Layer 3
Mode : Joint stereo
Format_Settings_ModeExtension : MS Stereo
Codec ID : 55
Codec ID/Hint : MP3
Duration : 10mn 6s
Bit rate mode : Variable
Bit rate : 121 Kbps
Nominal bit rate : 128 Kbps
Channel(s) : 2 channels
Sampling rate : 48.0 KHz
Stream size : 8.79 MiB (7%)
Alignment : Aligned on interleaves
Interleave, duration : 24 ms (0.60 video frame)
Interleave, preload duration : 445 ms
Writing library : LAME3.90.
Encoding settings : -m j -V 4 -q 2 -lowpass 17.6 --abr 128

Скриншоты


Субтитры

1
00:00:18,887 --> 00:00:23,483
ЗАКРОЙ ДВЕРЬ
2
00:00:38,967 --> 00:00:44,564
Неделю назад мама неожиданно заболела.
А на следующий день - умерла.
3
00:00:46,507 --> 00:00:49,401
Поэтому теперь
я остался совершенно один.
4
00:01:50,807 --> 00:01:54,880
Тяжело привыкнуть к таким
быстрым переменам.
5
00:08:06,807 --> 00:08:11,198
Тяжело привыкнуть к таким
быстрым переменам.
6
00:08:31,967 --> 00:08:36,518
Но если я погружусь в новую
среду, никто и не заметит.
7
00:08:52,647 --> 00:08:57,402
Если стоять тихо, меня
практически не видно.
[teatrix.ru].t4102.torrent 
Торрент: Зарегистрирован [ 2015-10-07 12:13 ] · 49153D7A12DFCA5FB6CA75854E6F32D5A61BBB04

Скачать .torrent

Скачать

19 KB

Статус: проверено
Скачан: 0 раз
Размер: 120 MB
terms.php



Быстрый ответ

Имя:

      
Для отправки сообщений необходимо включить JavaScript
Показать сообщения:    

Текущее время: 10-Дек 19:38

Часовой пояс: UTC + 3


Вы можете начинать темы
Вы можете отвечать на сообщения
Вы не можете редактировать свои сообщения
Вы не можете удалять свои сообщения
Вы не можете голосовать в опросах
Вы не можете прикреплять файлы к сообщениям
Вы можете скачивать файлы