Копенгаген / København (Андреас М. Дальсгор / Andreas M. Dalsgaard) [2009, Дания, драма, WEB-DLRip] (Mannenr) + Sub Rus + Original Dan


Статистика раздачи [Обновить пиров]
Размер:  514 MB   |    Зарегистрирован:  1 год 2 месяца   |    Скачан:  0 раз

Полного источника не было: Никогда

 
   
 
 
 

[Цитировать]

Копенгаген-København- Страна: Дания
Жанр: драма
Год выпуска: 2009
Продолжительность: 00:31:50
Перевод: Субтитры (sombre soul)
Режиссер: Андреас М. Дальсгор / Andreas M. Dalsgaard-В ролях: Томас Бо Ларсен, Лаура Драсбек, Пернилла Валентин, Эллен Хилингсо, Ким Сондерхольм-Короткометражный фильм "Копенгаген" рассказывает о военном фотографе Янусе, который ездит по горячим точкам и снимает кадры тех конфликтов. Спустя пять лет он возвращается в Копенгаген и открывает свою выставку. Все идет хорошо, и людям нравятся его фотографии. Но все меняется, когда Янус встречает Катрин, женщину, которую бросил пять лет назад...-Сэмпл: Copenhagen.Sample.avi
Качество видео: WEB-DLRip
Формат видео: AVI
Видео: MPEG4 Video (H264) 1180x506 25fps 2055 Кбит/сек
Аудио: Dolby AC3 48000Hz stereo 192kbps
Формат субтитров: softsub (SRT)

MediaInfo

Общее
Полное имя                               : D:\МОИ ПЕРЕВОДЫ\Короткометражки\Копенгаген (København) (2009)\Копенгаген (København) (2009).avi
Формат                                   : AVI
Формат/Информация                        : Audio Video Interleave
Размер файла                             : 514 Мбайт
Продолжительность                        : 31 м.
Общий поток                              : 2259 Кбит/сек
Видео
Идентификатор                            : 0
Формат                                   : AVC
Формат/Информация                        : Advanced Video Codec
Профиль формата                          : High@L3.1
Параметр CABAC формата                   : Да
Параметр ReFrames формата                : 4 кадра
Идентификатор кодека                     : H264
Продолжительность                        : 31 м.
Битрейт                                  : 2055 Кбит/сек
Ширина                                   : 1180 пикселей
Высота                                   : 506 пикселей
Соотношение сторон                       : 2,35:1
Частота кадров                           : 25,000 кадров/сек
Цветовое пространство                    : YUV
Субдискретизация насыщенности            : 4:2:0
Битовая глубина                          : 8 бит
Тип развёртки                            : Прогрессивная
Бит/(Пиксели*Кадры)                      : 0.138
Размер потока                            : 468 Мбайт (91%)
Библиотека кодирования                   : x264 core 123 r2189 35cf912
Настройки программы                      : cabac=1 / ref=3 / deblock=1:0:0 / analyse=0x3:0x133 / me=hex / subme=7 / psy=1 / psy_rd=1.00:0.00 / mixed_ref=1 / me_range=16 / chroma_me=1 / trellis=1 / 8x8dct=1 / cqm=0 / deadzone=21,11 / fast_pskip=1 / chroma_qp_offset=-2 / threads=3 / sliced_threads=0 / nr=0 / decimate=1 / interlaced=0 / bluray_compat=0 / constrained_intra=0 / bframes=3 / b_pyramid=2 / b_adapt=1 / b_bias=0 / direct=1 / weightb=1 / open_gop=0 / weightp=2 / keyint=250 / keyint_min=25 / scenecut=40 / intra_refresh=0 / rc_lookahead=40 / rc=crf / mbtree=1 / crf=20.0 / qcomp=0.60 / qpmin=10 / qpmax=51 / qpstep=4 / ip_ratio=1.40 / aq=1:1.00
Аудио
Идентификатор                            : 1
Формат                                   : AC-3
Формат/Информация                        : Audio Coding 3
Расширение режима                        : CM (complete main)
Параметр Endianness формата              : Big
Идентификатор кодека                     : 2000
Продолжительность                        : 31 м.
Вид битрейта                             : Постоянный
Битрейт                                  : 192 Кбит/сек
Каналы                                   : 2 канала
Расположение каналов                     : Front: L R
Частота                                  : 48,0 КГц
Битовая глубина                          : 16 бит
Метод сжатия                             : С потерями
Размер потока                            : 43,7 Мбайт (8%)
Выравнивание                             : Соединение по промежуткам
Продолжительность промежутка             : 32  мс. (0,80 видеокадр)

Скриншот c названием фильма

Отрывок субтитров

7
00:02:17,560 --> 00:02:21,0
А фотографии из Сьерра-Леоне
повесим в самом конце.
8
00:02:21,560 --> 00:02:23,640
Женщина в автомобиле...
9
00:02:24,800 --> 00:02:27,760
— Как поездка?
— Долгая.
10
00:02:29,960 --> 00:02:33,0
— Список гостей.
— Благодарю. Все подтверждены?
11
00:02:33,400 --> 00:02:35,40
Да, большинство.
12
00:02:35,440 --> 00:02:41,280
— А Катрин Хюльгор?
— Твой личный список внизу.
13
00:02:42,760 --> 00:02:45,360
Бьюсь об заклад, все пройдет здорово.
14
00:02:46,880 --> 00:02:49,0
Отлично. Увидимся внизу.
15
00:02:49,800 --> 00:02:55,200
Твое интервью начнется в 12.00 и
закончится беседой с телевизионщиками.
16
00:03:05,280 --> 00:03:08,80
Контраста мало.
17
00:03:09,760 --> 00:03:12,0
Ты обеспокоен тем, как их примут?
18
00:03:12,880 --> 00:03:17,0
— Что с рамками?
— Картонная будет в самый раз.
19
00:03:17,840 --> 00:03:21,0
— Мне нравятся здесь цвета.
— Хорошо.
20
00:03:28,560 --> 00:03:30,0
Отнесите это в конец.
21
00:03:30,960 --> 00:03:34,0
— Рикке!
— Привет! Куда ты пропал?
22
00:03:34,880 --> 00:03:37,0
— Ты о чем?
— Я ездила в аэропорт встречать тебя.
23
00:03:37,840 --> 00:03:42,280
Мы же договорились, что встретимся
здесь. Это моя младшая сестра.
24
00:03:43,720 --> 00:03:45,0
— Я спущусь вниз.
— Хорошо, еще увидимся.
25
00:03:45,880 --> 00:03:51,0
Я тебя еле дождалась.
А теперь мне пора на работу.
26
00:03:51,480 --> 00:03:55,0
— Может, по чашечке кофе?
— Нет времени.
27
00:03:55,240 --> 00:03:57,0
— Ты такой худой!
— Я много работаю.
[teatrix.ru].t4103.torrent 
Торрент: Зарегистрирован [ 2015-10-07 12:13 ] · E15E6AD3CB67C9C0A6EF93EF0AAD3C2625C187DE

Скачать .torrent

Скачать

11 KB

Статус: проверено
Скачан: 0 раз
Размер: 514 MB
terms.php



Быстрый ответ

Имя:

      
Для отправки сообщений необходимо включить JavaScript
Показать сообщения:    

Текущее время: 07-Дек 13:38

Часовой пояс: UTC + 3


Вы можете начинать темы
Вы можете отвечать на сообщения
Вы не можете редактировать свои сообщения
Вы не можете удалять свои сообщения
Вы не можете голосовать в опросах
Вы не можете прикреплять файлы к сообщениям
Вы можете скачивать файлы