Моя последняя роль / Mon dernier role / Mon dernier rôle (Оливье Айаш-Видаль / Olivier Ayache-Vidal) [2006, Франция, комедия, черный юмор, интронизация абсурда, короткий метр, DVB] Original (Fre) + Sub (rus)


Статистика раздачи [Обновить пиров]
Размер:  302 MB   |    Зарегистрирован:  1 год 3 месяца   |    Скачан:  0 раз

Полного источника не было: Никогда

 
   
 
 
 

[Цитировать]

Моя последняя роль
Mon dernier rôle- Страна: Франция
Жанр: комедия, черный юмор, интронизация абсурда, короткий метр
Год выпуска: 2006
Продолжительность: 00:14:21
Перевод: Субтитры (перевод М. Кузиной, Éclair Group)
Cубтитры: русские
Оригинальная аудиодорожка: французский
Режиссер: Оливье Айаш-Видаль / Olivier Ayache-VidalВ ролях: Патрик Шене / Patrick Chesnais, Жан-Клод Бриали / Jean-Claude Brialy, Николь Гарсиа / Nicole Garcia, Давид Пюжада / David Pujadas
Описание: Sic transit gloria mundi — Так проходит мирская слава (Фома Кемпийский "О подражании Христу")
Прошло три года с тех пор, как Патрик Шене остался без работы. В жизни актера были лучшие дни, когда его имя было синонимом успеха в кино. И он принял решение – сегодня будет его последняя роль – и эта роль станет его лучшей ролью!
Новости на канале TF1: "Только что стало известно о смерти Патрика Шене. Его тело было обнаружено в номере люкс отеля "Мерис". Подробности пока не известны. Наши следующие выпуски будут посвящены смерти великого киноактера…"
Доп. информация: Запись со спутника (канал TV5MONDE).
Награды: Гран-при Festival du court métrage d'humour - Meudon 2006; Гран-при Festival Comedia “Juste pour rire” – Montréal 2006; Студенческий приз международного жюри Cracow Film Festival 2007 за чрезвычайно реалистичное изображение смерти.
Информация: http://www.imdb.com/title/tt0499239/
Сэмпл: http://multi-up.com/865287
Качество видео: DVB
Формат видео: MPEG-PS (См. при проблемах с просмотром видео)
Видео: MPEG Video 2, 720x576@1024x576 (16:9), 25 fps, ~2683 kbps avg, 0.259 bit/pixel
Аудио: Французский (48 kHz, MPEG Audio 2, 2 ch, ~192.00 kbps avg)
Формат субтитров: hardsub (неотключаемые)

MediaInfo

Полное имя : H:\My Torrents\[apreder]MINI_MOVIE_008\[apreder]MM_Mon_dernier_role(2006)DVB.mpgФормат : MPEG-PSРазмер файла : 302 МбайтПродолжительность : 14 м.Режим общего битрейта : ПеременныйОбщий поток : 2933 Кбит/сек
ВидеоИдентификатор : 224 (0xE0)Формат : MPEG VideoВерсия формата : Version 2Профиль формата : Main@MainПараметр BVOP формата : ДаПараметр матрицы формата : ВыборочнаяПараметр GOP формата : M=3, N=24Продолжительность : 14 м.Вид битрейта : ПеременныйБитрейт : 2683 Кбит/секШирина : 720 пикселейВысота : 576 пикселейСоотношение сторон : 16:9Частота кадров : 25,000 кадров/секСтандарт вещания : PALЦветовое пространство : YUVСубдискретизация насыщенности : 4:2:0Битовая глубина : 8 битТип развёртки : ПрогрессивнаяПорядок развёртки : Верхнее поле первоеМетод сжатия : С потерямиБит/(Пиксели*Кадры) : 0.259TimeCode_FirstFrame : 00:00:00:00TimeCode_Source : Group of pictures headerРазмер потока : 276 Мбайт (91%)
АудиоИдентификатор : 192 (0xC0)Формат : MPEG AudioВерсия формата : Version 1Профиль формата : Layer 2Продолжительность : 14 м.Вид битрейта : ПостоянныйБитрейт : 192 Кбит/секКаналы : 2 каналаЧастота : 48,0 КГцМетод сжатия : С потерямиРазмер потока : 19,8 Мбайт (7%)

Скриншот c названием фильма

Скриншоты

Скриншоты анаморфированные

-740/722√
[teatrix.ru].t4104.torrent 
Торрент: Зарегистрирован [ 2015-10-07 12:13 ] · 12B3B55F609F85D3DF7B7144A836FBD479561C72

Скачать .torrent

Скачать

12 KB

Статус: проверено
Скачан: 0 раз
Размер: 302 MB
terms.php



Быстрый ответ

Имя:

      
Для отправки сообщений необходимо включить JavaScript
Показать сообщения:    

Текущее время: 24-Янв 00:00

Часовой пояс: UTC + 3


Вы можете начинать темы
Вы можете отвечать на сообщения
Вы не можете редактировать свои сообщения
Вы не можете удалять свои сообщения
Вы не можете голосовать в опросах
Вы не можете прикреплять файлы к сообщениям
Вы можете скачивать файлы