Признание / Erkjenning / Recognition (Видар Даль / Vidar Dahl, Ёран Вердаль / Jøran Wærdahl) [2011, Норвегия, короткий метр, драма, DVDRip] + Sub Rus + Original Nor


Статистика раздачи [Обновить пиров]
Размер:  45 MB   |    Зарегистрирован:  1 год 1 месяц   |    Скачан:  0 раз

Полного источника не было: Никогда

 
   
 
 
 

[Цитировать]

Признание / Erkjenning / Recognition- Страна: Норвегия
Жанр: короткий метр, драма
Год выпуска: 2011
Продолжительность: 00:03:07-Перевод: субтитры (Hurin)
Cубтитры: русские (софтсаб), английские (хардсаб)
Оригинальная аудиодорожка: норвежский-Режиссер: Видар Даль / Vidar Dahl, Ёран Вердаль / Jøran Wærdahl
В ролях: Торстейн Андерсен (...мужчина), Эва Брагстад (...женщина), Йон Эйкемо (...голос за кадром).-Описание: Самая обычная среда. Замершая жизнь. Забытые воспоминания и один ослепительный миг. - IMDb-Качество видео: DVDRip
Формат видео: AVI
Видео: XviD, 704x368 (1.913), 25.000 fps, 1 836 Kbps
Аудио: MP3, 48.0 KHz, 192 Kbps (constant), 2 channels
Формат субтитров: softsub (SRT)

MediaInfo

General
Complete name : D:\
Format : AVI
Format/Info : Audio Video Interleave
File size : 45.4 MiB
Duration : 3mn 7s
Overall bit rate : 2 038 Kbps
Writing application : VirtualDubMod 1.5.10.2 (build 2540/release)
Writing library : VirtualDubMod build 2540/release
Video
ID : 0
Format : MPEG-4 Visual
Format profile : Advanced Simple@L5
Format settings, BVOP : Yes
Format settings, QPel : No
Format settings, GMC : No warppoints
Format settings, Matrix : Default (H.263)
Muxing mode : Packed bitstream
Codec ID : XVID
Codec ID/Hint : XviD
Duration : 3mn 7s
Bit rate : 1 836 Kbps
Width : 704 pixels
Height : 368 pixels
Display aspect ratio : 1.913
Frame rate : 25.000 fps
Resolution : 8 bits
Colorimetry : 4:2:0
Scan type : Progressive
Bits/(Pixel*Frame) : 0.283
Stream size : 40.9 MiB (90%)
Writing library : XviD 1.0.3 (UTC 2004-12-20)
Audio
ID : 1
Format : MPEG Audio
Format version : Version 1
Format profile : Layer 3
Mode : Joint stereo
Format_Settings_ModeExtension : MS Stereo
Codec ID : 55
Codec ID/Hint : MP3
Duration : 3mn 7s
Bit rate mode : Constant
Bit rate : 192 Kbps
Channel(s) : 2 channels
Sampling rate : 48.0 KHz
Stream size : 4.28 MiB (9%)
Alignment : Aligned on interleaves
Interleave, duration : 40 ms (1.00 video frame)
Interleave, preload duration : 504 ms

Скриншоты


[teatrix.ru].t4105.torrent 
Торрент: Зарегистрирован [ 2015-10-07 12:13 ] · FBE1530FBABFC8E67F1D7FD9D51459C0D332B9E5

Скачать .torrent

Скачать

15 KB

Статус: проверено
Скачан: 0 раз
Размер: 45 MB
terms.php



Быстрый ответ

Имя:

      
Для отправки сообщений необходимо включить JavaScript
Показать сообщения:    

Текущее время: 03-Дек 22:45

Часовой пояс: UTC + 3


Вы можете начинать темы
Вы можете отвечать на сообщения
Вы не можете редактировать свои сообщения
Вы не можете удалять свои сообщения
Вы не можете голосовать в опросах
Вы не можете прикреплять файлы к сообщениям
Вы можете скачивать файлы